&title=Drink
&artist=Dr. Peacock & D-Frek
&first=0.049
&lv_5=14
&des_5=哈朗 is here to drink your beer
&inote_5=
(195){4}7h[4:1],5h[4:1],4h[4:1],2h[4:1],
8h[2:1],1h[4:1],,C,
{32}8b/1b,2/7,6/3,5h[32:29]/4h[32:29],{1},{4},,,{16},,{4}E1,
,,E2,
{1}E3,
{4}E4,,,E5,
{1}E6,
{4}E7,,,E8,
{1}E1,
{4}8/1h[4:1],7,6h[4:1],{8}2,6,
{4}2,6,5/4h[4:1],{8}5,5,
{4}4h[4:1],3h[4:1],2h[4:1],{8}1,1,
{4}2/7,6/2,{8}5,6,5,6,
{4}7/4h[4:1],8h[4:1],1h[4:1],{8}8,8,
{4}2h[4:1],7h[4:1],{8}3,6,4,6,
{4}4h[4:1],5h[4:1],7h[4:1],2h[4:1],
4h[4:1],5h[4:1],7-3[8:1],7b,
8/2,8/3,8/4,{8}4,1,
{4}4/1,2/4,4/3,{8}3,7,
{4}3/7,3/6,3/5,{8}5,1,
{4}5/1,5/8,{2}5>3[8:1]/7<5[8:1],
{8}1,1,7,7,5,5,3,3,
4,3,2,1,8,7,6,5,
1/8,1,2/1,2,3/2,3,4/3,4,
5/4,5,6/5,6,{2}6/7h[2:1],
{4}2-6[8:1],3-7[8:1],4-8[8:1],5-1[8:1],
6-2[8:1],7-3[8:1],8-4[8:1],1,
{8}1/5,1/5,6/2,6/2,3/7,7/3,4/8,8/4,
E8/E4,E7/E3,E6/E4,A5/A4,{32}4b/5b,E6/E4,B3/B6,B7/B2,{8}E2/E8,,,1-7[8:1],
5,1-3[8:1],5,1-7[8:1],5,1-3[8:1],5,
1-7[8:1],5,1-3[8:1],5,1-7[8:1],5,1-4[8:1],5,
1-6[8:1],5,1-4[8:1],5,1-6[8:1],5,1-4[8:1],5,
1-6[8:1],5,1-4[8:1],5,1qq7b[16:3],5,,,4-2[8:1],
8,4-6[8:1],8,4-2[8:1],8,4-6[8:1],8,
4-2[8:1],8,4-6[8:1],8,4-2[8:1],8,4,8,
{2}4-8b[8:1],1-4b[8:1]/7-4b[8:1],
3-7b[8:1]/5-1b[8:1],8-5b[8:1]/4-1b[8:1],
{8}6-4[8:1],2h[8:1],6-8[8:1],2h[8:1],6-4[8:1],2h[8:1],6-8[8:1],2h[8:1],
6-4[8:1],2h[8:1],6-8[8:1],2h[8:1],6-4[8:1],2h[8:1],6-8[8:1],2h[8:1],
6-4[8:1],3h[8:1],6-8[8:1],3h[8:1],6-4[8:1],2h[8:1],6-8[8:1],2h[8:1],
6-4[8:1],1h[8:1],6-8[8:1],1h[8:1],6-4[8:1],2h[8:1],6-8-2-4[2:1],2h[8:1],
{4}6b,{8},,,,8/1,2/7,
{1}6>3-8[2:1]/3>8-5[2:1],
{8}1>4[8:1],7,7,7,8<5[8:1],2,2,2,
3/6,{16}3,4,{8}3,5,5,6,7-4b[8:1]*-2b[8:1],7,
{4}7b,{8}1/5,5/1,{4}5/1,{8}8/7,6/8,
{4}5s1[8:3]/1z5[8:3],{8},,,,2,2,
1h[4:1],5,8h[4:1],4,7h[4:1],3,6h[4:1],2,
{4}5,{8}3/6,6,7/3,7/3,{4}7/3,
1/7h[4:1],{8}2,7/2,{4}7/2,6/3,
5/4h[4:1],{8}6,6/4,{4}6/4,{8}3,7,
{2}5-2[8:1]/1-4[8:1],8-3[8:1]/1-6[8:1],
{8}2,1,8,7,6b/3b,,,2x/7x,
2/7,2/6,2/5,2/4,{4}2/3,{8}8/1,8/1,
8/2,8/3,8/4,8/5,{4}8/6,{8}6/2,7/3,
{2}2-7[8:1]/6-3[8:1],8-3[8:1]/4-7[8:1],
8-5[8:1]/4-1[8:1],6-1[8:1]/2-5[8:1],
{4}8x/4x,{8}7/3,2/6,{4}8/4,3/7,
2/5,{8}3/4,4/5,{4}5/6,4/6,
{2}5b-1[8:1]/4b-8[8:1],7b-4[8:1]/2b-5[8:1],
{4}E7/B7/B6,B2/B3/E3,{2}Cfh[4:1],
{4}8/1-6[8:1],8/1-4[8:1],8/1-6[8:1],{8}7/1-4[8:1],7,
{4}7/1-6[8:1],7/1-4[8:1],7/1-6[8:1],{8}8/1v4[8:1],8,
{4}8h[8:1]/1v6[8:1],7h[8:1]/1v4[8:1],8h[8:1]/1v6[8:1],{8}7/1v4[8:1],7,
{4}7/1v6[8:1],{8}8/1v4[8:1],8,8/1v6[8:1],,,4,
4b/5-1[8:1],5/4b,{4}4b/5-8[8:1],4h[8:1]/5-2[8:1],{8}5-8[8:1],3,
{4}3h[8:1]/5-2[8:1],3h[8:1]/5-8[8:1],{8}3h[8:1]/5-2[8:1],,,4,
{4}4h[8:1]/6h[8:1],5h[8:1]/6h[8:1],5h[8:1]/3h[8:1],3h[8:1]/4h[8:1],
1w5b[8:1],1b,{2}3-1b[8:1]/7-1b[8:1],
{4}7-2[8:1],6-3[8:1],7-2[8:1],6-3[8:1],
7-2[8:1],6-3[8:1],7-2[8:1],6-3[8:1],
6,7/8b,1b/2,{8}8/1,8/1,
{4}7b/2b,{8}5/6,5/4,{2}3-7[8:1]/4-7[8:1],
{8}8/2,8,7/3,7,6/4,6,5,5,
4/6,4,3/7,3,2/8,2,1,1,
{2}8-5[8:1]*-4[8:1],3-6[8:1]*-7[8:1],
{4}1b/2b,3b/4b,5b/6b,7b/8b,
1h[4:1],{8}7,1,7,{16}1,8,{8}1,8,
2h[8:1],1,,5,4,{16}5,4,{8}5,4,
{4}6h[4:1],{8}4,5,3,{16}6,5,{8}6,4,
7h[8:1],6h[8:1],5h[8:1],4h[8:1],{16}5,4,{8}5,{16}3,6,{8}3,
{4}7h[4:1],{8}2,2,8/1,{16}8x,7x,{8}6x,2,
5h[8:1],4,,3,3/5,{16}3x,2x,{8}1x,8x/1x,
{4}7b,{8}8,1,{4}2b,{8}1,8,
7,6,5,4,{16}3,2,{8}3,{4}2,
7h[8:1]/1x-4[8:1],6h[8:1],4x-1[8:1],6h[8:1],
7h[8:1]/1x-4[8:1],6h[8:1],7h[8:1]/4x-1[8:1],6h[8:1],
2h[8:1]/8x-5[8:1],3h[8:1],2h[8:1]/5x-8[8:1],3h[8:1],
2h[8:1]/8x-5[8:1],3h[8:1],2h[8:1]/5x-8[8:1],3h[8:1],
{8}7b/2b,{16}7,8,{8}7,{16}2,1,{8}2,{16}6,8,{8}5,{16}3,1,
{8}4,{16}6,1,{8}7,{16}3,1,{8}2,{16}6,4,{8}5,{16}3,5,
{8}4,4,7,7,2,2,5,5,
4,3,2,1,{16}8-4[8:1],1,{8}8,,,{1}Ch[2:7],
{4},,,,,,,,,,,,C/E1,
E2/C,E3/C,C/E4,
C/E5,C/E6,E7/C,E8/C,
{8}8/7,8/7,6/5,6/5,4/3,3/4,2/1,1/2,
{1}8s4-6[2:1]/7s3-5[2:1],
{32}8x,7x,{16}6x,{32},,,,8x,1x,{16}2x,{32},,,,8x,7x,{16}6x,{32},,,,8x,1x,{16}2x,{32},,,,8x,
7x,{16}6x,{32},,,,8x,1x,{16}2x,{32},,,,8x,7x,{16}6x,{32},,,,8x,1x,{16}2x,{32},,,,8bx,
7x,{16}6x,{32},,,,8bx,1x,{16}2x,{32},,,,8bx,7x,{16}6x,{32},,,,8bx,1x,{16}2x,{32},,,,8bx,
7x,{16}6x,{32},,,,8bx,1x,{16}2x,{32},,,,8bx,7x,{16}6x,{32},,,,8bx,1x,{16}2x,,,{8}3/5,
5/3,{4}3/5,{32}4x,3x,{16}2x,{32},,,,4x,5x,{16}6x,{32},,,,4x,
3x,{16}2x,{32},,,,4x,5x,{16}6x,{32},,,,4x,3x,{16}2x,{32},,,,4x,5x,{16}6x,,,{4}4>1[8:1],
8b,4<7[8:1],8b,
2b/3b,4b/5b,6b/7b,8b/1b-5b[8:1],
8/1b-3b[8:1],7/1b-5b[8:1],6h[4:1]/1b-3b[8:1],{8}1b-5b[8:1],6,
{4}7/1b-3b[8:1],8/1b-5b[8:1],7/1b-3b[8:1],1b/6-2b[8:1],
4/6b-8b[8:1],5/6b-2b[8:1],4/6b-8b[8:1],{8}3/6b-2b[8:1],3,
{4}4/6b-8b[8:1],{8}5/6b-2b[8:1],5,{4}4h[4:1]/6b-8b[8:1],{8}6b,4,
6b/4b,6b/4b,{4}3b-8[8:1]/7b-2[8:1],3b/7b,1-5[8:1],
1-6[8:1]*-4[8:1],1w5[8:1],1,{8}1/7,1/7,
{2}7-3[8:1]/1-5[8:1],6v1[8:1]/4v1[8:1],
{4}2b/4b,1b/5b,{2}6b/8b,
{4}1h[4:1],{8}8bx,2,7,{16}2,1,{8}2bx,1,
3h[8:1],4,3bx,6,4,{16}6,5,{8}6bx,4,
{4}6h[4:1],{8}5bx,6,4,{16}5,4,{8}5bx,4,
5h[8:1],6h[8:1],7bxh[8:1],8h[8:1],{16}1-5b[8:1],7,{8}1,{4}1bx,
7-4[8:1],{8}1/7,1,3,{16}4,6,{8}3,5h[8:1],
3h[8:1],4,,3,3,{16}6,2,{8}5v8[16:3],3,
{4}4v1[16:3],6pp7[4:1],{2}3qq2[4:1],
{8}7,6,4w8b[4:1],3,{2}4b,
{8}8-4b[8:1],8,7-3b[8:1],7,8-4b[8:1],8,7-3b[8:1],7,
8-4b[8:1],8,7-3b[8:1],7,8-4b[8:1],8,7b,7,
5-1b[8:1],5,4-8b[8:1],4,5-1b[8:1],5,4-8b[8:1],4,
5-1b[8:1],5,4-8b[8:1],4,5-1b[8:1],5,4b,4,
8/2,8,8/3,8,8/4,8,8/5,8,
4/6,4,4/7,4,4/8,4,4/1,4,
7/1,5,8/2,4,7/1,5,7/2,4,
5,5,4,4,{16}8,1,{8}8,{4}1b,
6b/3b,{8}5h[8:1],4,4h[8:1],5,5h[8:1],4,
4h[8:1],6,5h[8:1],3,4h[8:1],6,5h[8:1],3,
1-6b[8:1],1h[4:1],,,5-2b[8:1],5h[4:1],,,{2}3-8b[8:1]*-6b[8:1],
7-2b[8:1]*-4b[8:1],
{4}5/1h[8:1],7/3h[8:1],1/5h[8:1],3/7h[8:1],
1h[8:1]/2h[8:1],3h[8:1]/4h[8:1],5h[8:1]/6h[8:1],7h[8:1]/8h[8:1],
E1,E3,E5,E7,
E1/E7,E2/E6,{2}E3/E5,
{32}8b/1b,2/7,6/3,5h[32:29]/4h[32:29],
E
&lv_6=14+
&des_6=哈朗
&inote_6=
(195){4}Cfh[4:7],{1},{4},,,{32}8/1,
7/2pp5[32:87],3/6pp1b[16:43],5/4,{1},,,{4},,,{16},,{4}5,
,,5,
{1}5,
{4}4,,,4,
{1}4,
{4}6/5h[4:1],4,5/3h[4:1],{8}4,5,
{4}3/5,6/4,7/5h[4:1],{8}7,6,
{4}5/4,4/3,3/2h[4:1],{8}3,3,
{4}4/3h[4:1],5h[4:1],{8}4h[8:1],5h[8:1],4h[8:1],5h[8:1],
{4}3,6/4,{2}5-8[8:1]*-2[8:1],
{4}1,7/3,{8}6/3,4,3,4,
{2}3h[4:1]/4h[4:1],6h[4:1]/5h[4:1],
{4}3/4,4z8[4:1]/5s1[4:1],{2}5/4,
{8}8/3,3,7/4,4,6/5,5,5,6,
7/4,7,6/3,6,5/2,5,4,3,
4/5h[4:1],6,3h[4:1],2,6h[4:1],5,4,6,
{4}2h[8:1]/4h[8:1],3h[8:1]/5h[8:1],{2}6h[4:1]/4h[4:1],
{8}3/4,2/5,4/3,5/2,3,3,4,4,
6/5,7/4,5/6,4/7,6,6,5-7[8:1],5,
5/4-2[8:1],4,4/6-8[8:1],6,6/3-1[8:1],3,3/7,7,
8/2,8/2,7/3,7/3,{2}6h[4:1]/4h[4:1],
{4}5V31[4:1],1V75[4:1],5>1[4:1],1<5[4:1],
5-3>1[4:1],1-7<5[4:1],5,1,
{8}8/7,8/7,6/5,6/5,4/3,3/4,2/1,1/2,
E8,E6,E4,E2,{2}8b/1b,
{64}5h[8:1],B5,,,,,,,4h[8:1],B4,,,,,,,5h[8:1],B5,,,,,,,4h[8:1],B4,,,,,,,5h[8:1],B5,,,,,,,3h[8:1],B3,,,,,,,5h[8:1],B5,,,,,,,3h[8:1],B3,,,,,,,6h[8:1],
B6,,,,,,,4h[8:1],B4,,,,,,,6h[8:1],B6,,,,,,,4h[8:1],B4,,,,,,,6h[8:1],B6,,,,,,,3h[8:1],B3,,,,,,,6h[8:1],B6,,,,,,,3h[8:1],B3,,,,,,,7h[8:1],
B7,,,,,,,2h[8:1],B2,,,,,,,7h[8:1],B7,,,,,,,2h[8:1],B2,,,,,,,7h[8:1],B7,,,,,,,3h[8:1],B3,,,,,,,7h[8:1],B7,,,,,,,3h[8:1],B3,,,,,,,6h[8:1],
B6,,,,,,,4h[8:1],B4,,,,,,,6h[8:1],B6,,,,,,,4h[8:1],B4,,,,,,,6h[8:1],B6,,,,,,,3h[8:1],B3,,,,,,,{4}6b,
{64}1h[8:1],B1,,,,,,,8h[8:1],B8,,,,,,,1h[8:1],B1,,,,,,,8h[8:1],B8,,,,,,,2h[8:1],B2,,,,,,,7h[8:1],B7,,,,,,,2h[8:1],B2,,,,,,,7h[8:1],B7,,,,,,,1h[8:1],
B1,,,,,,,6h[8:1],B6,,,,,,,2h[8:1],B2,,,,,,,5h[8:1],B5,,,,,,,3h[8:1],B3,,,,,,,4h[8:1],B4,,,,,,,3h[8:1],B3,,,,,,,4h[8:1],B4,,,,,,,{4}3-1[8:1]*-5[8:1],
3b,3-8[8:1]*-6[8:1],3b,
7h[4:1],8bh[4:1],1h[4:1],2>5[8:1],
2/7<4[8:1],7/1-3<4[8:1],1/8-6>5[8:1],8/2>5[8:1],
2/7<4[8:1],7/1-3<4[8:1],1/8-6>5[8:1],8/1-4[4:1],
4-7[4:1],7-2[4:1],2-5[4:1],5-8[4:1],
8-3[4:1],3-6[4:1],6-1[4:1],{8}1,2,
{4}3h[2:1],4h[8:1],5h[8:1],{8}6/4,7/5,
{4}8h[4:3]/6h[8:1],5h[8:1],4h[8:1],3h[8:1],
{8}2/8,{16}1,1,1,1,{8}1,4/6,{16}5,5,5,5,{8}5,
6/3,{16}5,4,{8}5,7/5,{16}6,5,4,3,5,4,3,2,
{8}1/8x,6,7/2x,4,8x/1,3,2x/7,5,
4/5x,7,6/3x,1,5x/4,2,3x/6x,8x/1x,
6x/5,7,4/3x,2,6x/4,8,5/3x,1,
7x/1x,5,8x/2x,4,7x/8x,8x/1x,{4}2x/1x>3[8:1],
8h[8:1]/1x-4[8:1],{8}7/1x-5[8:1],7,{4}6h[8:1]/1x-3[8:1],1x/8x<6[8:1],
4h[8:1]/8x-5[8:1],{8}3/8x-4[8:1],3,{4}3/8x-6[8:1],{8}8x/2,2,
{4}1b<6[8:1]*>4[8:1],1b,5bw1[8:1],5b,
{2}6xh[2:1]/4xh[4:1],Cfh[4:1],
{8}1bx/2b,3bx/8b,{4}2b/1bx-7[8:1],3h[8:1]/1x-3[8:1],{8}4/1x<6[8:1],5,
6/1x>4[8:1],5,4/1xs5[8:1]*z5[8:1],5,{4}1bx,{8}6b/4b,6b/4b,
{4}3/5<8[16:3],5/4b>1[16:3],4/5q1[8:1],5/4bp8[8:1],
4/8,1/7,{8}2/8,1/7,{4}8/2,
{8}3xh[8:1],4,6xh[8:1],5,2xh[8:1],1,7xh[8:1],8,
3xh[8:1],8,6xh[8:1],1,2xh[8:1],5,7xh[8:1],4,
{2}5x-8[8:1]/6x-8[8:1],3x-1[8:1]/4x-1[8:1],
{32}8x,1,2,3,4,5,6,7,8x,1,2,3,4,5,6,7,{2}8bx,
{4}6/4b-8[8:1],4/7-5[8:1]*-3[8:1],7,{8}6/4,3/5,
{4}4/2-4[8:1],2/5-1[8:1]*-3[8:1],5,{8}4/8,4,
{4}1/7-2[8:1],7/5-8[8:1],5/3-6[8:1],{8}3/1-4[8:1],1x,
{4}1x,{8}5pp8[4:1]*qq2[4:1],5x,5x,,,7x/3x,
6b/4b,6b/4b,{4}4b-1[8:1]/6b-1[8:1],6/4,{8}2/8,7/3,
{4}4<7[4:1],7>2[4:1],2>5[4:1],{8}5,6x,
{4}7x-4[8:1]*-2[8:1],7,3x/6x,8-6[8:1]/1-5[8:1],
C/8-4[8:1]/1-3[8:1],C/8-6[8:1]/1-5[8:1],{2}8/1/C,
{16}4x/8,1,2,3,4/8,7,6,5,4x/8,1,2,3,4/8,7,6,5,
4x/8,1,2,3,4/8,7,6,5,4x/8,1,2,3,4/8,7,6,5,
{4}4>1[8:1]*-1[8:1],4bx,4<7[8:1]*-7[8:1],4bx,
8x/1x,{8}7/5,6/4,{4}5h[4:1]/3-7[8:1],{8}3,5,
8/6,6,1/7,1,8/2,8,1/3,3,
2/4-1[8:1],5,6-2[8:1],7,{4}8-5[8:1],{8}8x,2x,
2x-5[8:1],1,2/7-4[8:1],8,7/2x-5[8:1],1,{4}2/7,
8/2>5[4:1],5<8[4:1],8>3[4:1],3b,
4xh[1:1],B5,E7,B8,
5xh[1:1],B4,E3,B1,
3xh[1:1],E6,B7,E1,
{8}8,2,8,1,{16}7,8,{8}7,{16}2,1,{8}2,
8x,8x,8x,8x,8x,8x,8x,8x,
2x,2x,2x,2x,6x,6x,3x,3x,
{16}5b,4,5,4,5,4,5,4,6b,3,6,3,6,3,6,3,
{8}B6,{16}E2,E3,{8}E4,B7,E2/B1,B3/E4,B5/E6,B7/E8,
5/3,{16}6,5,{8}7,3,4/6,{16}3,4,{8}2,6,
7/5,{16}3,4,{8}1,5,2/4,{16}6,5,{8}8,4,
4/7,{16}6,5,{8}7,6/4,5/2,{16}3,4,{8}2,3/5,
{16}1,2,3,4,8,7,6,5,2,3,4,5,7,6,5,4,
{8}1x,{16}6,5,{8}1x,{16}4,5,{8}1x,{16}4,3,{8}1x,{16}2,3,
{8}1x/8x,{16}4,5,{8}1x/8x,{16}6,5,{8}1x/8x,{16}6,7,{8}1x/8x,{16}8,7,
{8}1x,1x,1x,1x,1bx/5bx,5bx/1bx,5bx/1bx,1bx/5bx,
{1}1xh[4:3]/5xh[4:3],
E2/E6/E1/E5/Ch[2:7],
{4},,,,,,,,,,,,8/1,
7/2,6/3,5/4,
6/4h[8:1],3/5h[8:1],6h[8:1]/3h[8:1],7h[8:1]/2h[8:1],
{8}C,C,C,C,C,C,C,C,
{1}Cf,
{4}8-3[8:1]/4-7[8:1],8/4,{16}8x,1,2,3,4/8,1/5,2/6,3/7,
{2}4-7[8:1]/8-3[8:1],{16}7x/3x,6/2,5/1,4/8,3/7,2/6,1/5,8/4,
{4}3x/7x-1[8:1],2x-6[8:1]/7x-3[8:1],7bx/2bx,{8}5/4V27[4:1],5/4,
{4}7-3[8:1],{8}5,6,{2}4h[4:1]/5pp7b[8:1],
{8}6bx/B2/A2,7bx/B3/A3,{4}B4f/A4/8bx-6[8:1],1-5[8:1]/8-4[8:1],8/1>5[4:1],
1<5[4:1],1,{8}2x-7[8:1],6x-3[8:1],2b,6b,
E8,E4,B8,B4,B7,B3,B6,B2,
5/1,6/2,{16}3,6,3,6,{4}4h[4:1],{8}8b,8b,
6x/3>8[8:1],4,3x/6-8[8:1]*-2[8:1],5,{4}6x,{8}1bx/3bx,3bx/1bx,
2/8x<5[8:1],1,{4}8/3h[8:1],{16}3,2,1,8,5/7-3[8:1],4,3,2,
{2}1-5[8:1],{4}6x/3>8[8:1],3/6>3[8:1],
6b,{8}6/5-1-3[4:1],5/7,{4}5x/8,B7/B6/Cf,
{8}8x-5[8:1],8x,{4}8b,5x/4x,{8}6/5<7[8:1],5,
{4}3/5>2[16:3],8/5<1[4:1],5b,{8}3b,3b,
{4}2x>5[8:1]/1x<6[8:1],D2f/A1/A2,7x<4[8:1]/8x>3[8:1],D8f/A7/A8,
{8}5x/2x,{16}4,3,{8}4,3,{16}5b,6,7,8,1,2,{8}4bx,
{4}5/6-1[8:1],{8}6b/4,3,2,{16}1,2,{8}1b,2,
{4}8h[8:1]/1-4[8:1],{8}1b,7,6/5,{16}5-7[8:1],4,{8}5,5bx,
{4}3h[4:1],{8}6,5/4,6/3,{16}4,5,{8}4,3/6,
{16}3x,4,5,6,7/3x,8/4,1/5,2/6,7,8,1,2,3b,4,5,6,
{4}7-4b[8:1],{8}7b,3,5/3-8b[8:1],{16}3,4,{8}3b,5,
6-1b[8:1],1,6b,2,3-8b[8:1],{16}8,7,{8}6/3b,6,
7h[8:1],8,1bh[8:1],2,3h[8:1],4,5bh[8:1],6,
{2}Cfh[2:1],E1/B8/B1/E2/B2/E3/B3/E4/B4/E5/B5/E6/B6/E7/B7/E8,
{8}6b/4,7/1,3b/5,2/8,4/5b,7/8,5/4b,2/1,
4/6b,8/1,5/3b,8/1,6x/5x,4x/5x,3x/4x,{16}2x,7x,
{8}1>3[8:1],8-4[8:1],1-4[8:1],8-5[8:1],1-5[8:1],8<6[8:1],1,8,
2-5[8:1],7-4[8:1],2,7,1x-4b[8:1],8x,{4}1x/8x-6[8:1],
1x/8x-4[8:1],2x/8x-6[8:1],2x/8x-4[8:1],8x/1x-3[8:1],
8x/1x-5[8:1],7x/1x-3[8:1],7x/1x-5[8:1],{8}1x/8x,{16}8x,7x,
{8}4/6,1/2,3/5,8/7,6/5,1/2,3/4,7/8,
2,{16}6,4,{8}5,3,{16}8,7,6,5,1,2,3,4,
{4}5/6-3[8:1],4-1[8:1],2-7[8:1],8-5[8:1],
8-3[8:1],8-6[8:1]*-4[8:1],{8},,6x/4x,5/3,
{2}4xw8b[8:1],5xw1b[8:1],
8xw4b[8:1],1xw5b[8:1],
{8}6x/5x,7,8/1,2,3/4,5,6/7,8,
2/1,8,7/6,5,4/3,6/5,{4}7b/2b,
{1}8h[8:1]/1h[8:1],
{8},,,,4,{16}5,4,{8}5,4,
{1}E8/B7/B6/E6/B8/B1/B2/B3/B4/B5,
E
