&title=Cybernecia Catharsis
&artist=Tanchiky
&first=0
&des_5=albertoBradish
&lv_5=14
&des_7=albertoBradish
&lv_7=【藏】14?
&des=albertoBradish
&clock_count=4
&inote_5=(184){4},,,,,,,,{1}5bx/1h[4:7],
{8},,,,,,,,2h[4:1]/4h[4:1],
,,3h[4:1]/5h[4:1],,,{4}4/6>3[4:1],
{8}1,1,,2,3,4,5,6,
{1}4/8bh[1:2],
{8},,,,,,,,1,
2,3,7,6,5,3,4,
{16}6,5,{8}7,{16}3,4,{8}2,{16}8-4[8:1],1,{8}7,{4}8x/4x,
Cf,4x/3x,{8}5/1-5[8:1],6,{4}7/1x,
{8}8,8,2,2,{16}7-4[8:1],8,7,8,{8}7x,1,
{4}2x/B3/B4,{8}8,7x/B6/B5,,4,3,2,
1/5,5,2/7,2,8/2,{16}4x,3x,{4}2x-5[8:1],
{2}4x/2bpp8[8:5],6<1[8:1],
{8}2x,2,7/3,7,{16}7/5,4,3,2,1/8,7,6,5,
{4}8bxh[8:1]/4bxh[8:1],{16}1/5,2/6,{8}3/7,{4}5bxh[8:1]/1bxh[8:1],{16}4/8,3/7,{8}2/6,
1b-5[8:1],2,1/6bx-8[8:1],7,6bxqq1[4:1],4,{4}6x,
Cf,5x/6x,{8}4/8-4[8:1],3,{4}2/8,
{8}1,1,7,7,{16}2-5[8:1],1,2,1,{8}2,8,
{4}7/B6/B5,{8}1,2/B3/B4,,5,6,7,
8/4,4,7/2,7,1/7,{16}3x/6x,2x/7x,{4}1x-5[8:1]/8x-4[8:1],
8b/1b,{16}2,1,2,1,{4}8b/3b,{16}7,8,7,8,
{4}1b/6b,{16}3,4,3,4,{4}5b/2b-5[8:1],2/7,
8b-4[8:1],8/2b-6[8:1],2/5b-1[8:1],5b-3[8:1]*-2[8:1],
5b-7[8:1]*-8[8:1],5bw1[8:1],5bx,{16}4/2x,5x,6x,7x,
{4}2/8bx-4[8:1],8/1-3[8:1],{8}5/1,6,7/4,8,
{4}3/1-5[8:1],1x/2-4[8:1],{8}6/2,7,8/5,1,
{4}4/2x-6[8:1],2x/3-5[8:1],{8}3/7,8,1-6[8:1],1,
{4}3/1-4[8:1],{8}1/5,{16}6x,7x,{4}8x-5[8:1]*-3[8:1],8,
{8}7x/4,7,6/3,5,{4}3-7[8:1]/4-8[8:1],3/4,
{8}5x/4x,3,6/2,1,{4}8-4[8:1]/7-3[8:1],8/7,
{8}6h[8:1],5,3h[8:1],4,7-4[8:1],8,2-5[8:1],1,
8x-4[8:1],8x,{4}8x>3[8:1]*-3[8:1],8b<5[8:1]*-5[8:1],8b,
1b-5[8:1],1>4[4:1],4<7[4:1],{8}7,8,
1-5[8:1],2,{4}1/3>8[8:1],3x/8z4[4:1],{8}5,6,
{2}8bxh[8:3],{8}7/4,6/3,5/2,4/1,
4-6[8:1]/1-4[8:1],4/1,{4}4x/1x-6[8:1],1x/5x-2[8:1],5x,
{8}1bx/6b,{16}8,7,{8}1/6,2/5,{4}3/4,{8}8/3,{16}1,2,
{8}8b/3b,7/4,{4}5/6-1[8:1],6/2-5[8:1],2,
{16}1b,8,2,7,3,6,4,5,8b,7,1,6,2,5,3,4,
{32}5bx,6,7,8,1,2,3,4,5bx,6,7,8,1,2,3,4,{4}5bxw1[8:1],5,
{8}Cf,{16}4,5,{8}4,6/3,{16}4,5,{8}4,6/3,{16}4,5,
{8}4,6/3,{16}4,5,{8}4,E6/B6,E2/B2,E8/B7,E4/B3,
Cf,{16}5,4,{8}5,3/6,{16}5,4,{8}5,3/6,{16}5,4,
{8}5,3/6,{16}5,4,{8}5,3,1,7,5,
Cf,{16}3,4,{8}3,1/8,{16}6,5,{8}6,8/1,{16}3,4,
{8}3,1/8,{16}6,5,{8}6,8-5[8:1],1-4[8:1],8,1,
Cf,{16}6,5,{8}6,8/1,{16}3,4,{8}3,1/8,{16}6,6,
{8}5,8/1,{16}3,3,{8}4,2-6[8:1],3,2/8-4[8:1],7,
{1}1/8b>8-2-4-6-8[2:15]`Cf,
,,,Ch[1:2],
{2},,,,1h[4:1],
4h[4:1],
{4}5/4>1[2:1],5,5,5,
1/8<5[2:1],1,1,1,
5/4v2[2:1],6,7,8,
4/8v6[2:1],3,2,1,
{8}8b/2b,4,{24}6,5,6,5,,,{4}4/7,{8}8/2,7,
{24}3,4,3,4,,,{8}2,1/5,6/8,7,1/7,8,
{16}1bh,5,2,6,3,7,4,8,2bh,6,4,8,3bh,6,1,5,
{32}8b,1,2,3,4,5,6,7,8b,1,2,3,4,5,6,7,{4}8b/4w8[8:1],4,
{8}Cf/B7/B3,{16}6,5,{8}6,{16}3,4,{4}3-5-1[4:1],{8}3/8-6[8:1],8,
{4}8b-4b[8:1],6x/8b<5b[8:1],2/8b>3b[8:1],4/8b,
{8}6/2,{16}3,5,{8}4,{16}7,5,{8}6,{16}3,4,{8}1-5[8:1],2,
{4}5/1b<6[8:1]*>4[8:1],1bv6[8:1],1/3<6[8:1],3/8,
{8}Cf,{16}3,4,{8}3,{16}6,5,{4}6-4-8[4:1],{8}6/1-3[8:1],1,
{4}1b-5b[8:1],3x/1b>4b[8:1],7/1b<6b[8:1],{8}1b/5qq3>6[8:5],5x,
{4}5x/1bh[2:1],{8},,,,1/5,8/4,
{4}3-1[8:1]/7-5[8:1],3b-5[8:1]/7b-1[8:1],3b/7b-3[8:1],7b/2b,
{8}1b-5[8:1],{16}7,6,{8}1>4[8:1],{16}7,6,{8}1b-5[8:1],{16}7,6,{8}1,8,
{4}7-4[8:1]/4-8[8:1],7/4,6-1[8:1]/1-5[8:1],6/1,
{8}8b-4[8:1],{16}2,3,{8}8<5[8:1],{16}2,3,{8}8b-4[8:1],{16}2,3,{8}8,1,
{4}5-1[8:1]/2>5[8:1],5/2<7[8:1],6-2[8:1]/2-6[8:1],Cf,
{8}8b/4b,{16}6,5,{8}7,{16}3,4,{8}2,{16}7,8,{8}6q2[8:1],8,
6bx/1q5[8:1],3,1bx/4q8[8:1],2,4bx/1xp5[8:1],2,1bx/3,{16}3,2,
{8}1/5bx,1,1/3b,1,1/7b,1,1/8b,{16}7/2,6/3,
{8}5/4,3/1,4/5,6/8,{16}1-5[8:1],8/4,7/3,6/2,{4}5/1b,
{8}Cf,{16}8,1,{8}8,2/7,{16}8,1,{8}8,2/7,{16}8,1,
{8}8,2/7,{16}8,1,{8}8,E2/B2,E6/B6,E4/B3,E8/B7,
Cf,{16}1,8,{8}1,7/2,{16}1,8,{8}1,7/2,{16}1,8,
{8}1,7/2,{16}1,8,{8}1,7/8,5/6,3/4,1/2,
Cf,{16}7,8,{8}7,5/4,{16}2,1,{8}2,4/5,{16}7,7,
{8}8,5/4,{16}2,2,{8}1,4-1[8:1],5-8[8:1],4,5,
Cf,{16}2,1,{8}3/8,4/5,{16}7,8,{8}6/1,5/4,{16}2,1,
{8}3/8,4/5,{16}7,8,{8}6/1,6-2[8:1],7,6/4w8[8:1],3,
{1}4`Cf`B8`B1`B7,
,,,{8}6/3,
6,5,5,,3,5,4,
6,5,,5,4,3,5,6,
3,4,5,6,5,4,3,4,
6,6,,5,3/4h[8:3],2,1,8,
E
&inote_7=(184){4},,,,,,,,{1}4bx/5h[4:7],
{8},,,,,,,,6h[4:1]/2h[4:1],
,,5h[4:1]/1h[4:1],,,{4}4/8,
{8}2,2,,8,,7,6,5,
1b,1,2,3,,6,5,6,
2,1,,6,7,8,1,2,
3h[8:3],2,1,8h[8:3],3,4,5,7,
{16}6,4,{8}5,{16}3,5,{8}4,{16}8-4[8:1],2,{8}7,{4}8/4,
Cf,4h[4:1],{8}8,4,{4}2/1,
{8}8,7,6/2,5,{16}3,4,3,4,{8}3,5/2,
{4}7x/8x,{8}1,8/3,,8,{4}1/6,
{8}1,2,3/7,4,{16}6,5,6,5,{8}6,4/7,
{2}3/1bxp6[4:3],3>7[4:1],
{8},1x,2/8,3/7,{16}4,5,6,7,8,1,2,3,
{4}8x/4x-8[8:1],{16}7,6,{8}5,{4}1/5-1[8:1],{16}2,3,{8}4,
8x/2x,4,7/1,4,5/6p4[4:1],4,{4}6/3,
Cf,8xh[4:1],{8}4,8,{4}6/5,
{8}4,3,2/6,1,{16}7-5[8:1],8,7,8,{8}7,1,
{4}3x/4x,{8}5,4/7,,4,{4}5/2,
{8}5,6,7/3,8,{16}2-4[8:1],1,2,1,{4}2,
6/1,{16}4/5h[4:1],3,2,1,{4}8>4[16:3],{16}5,6,7,8,
{4}1<5[16:3],{16}4,3,2,1,{4}8-4[8:1],8,
7bxv4[8:1],7/2b-6[8:1],2/5b-1[8:1],5/8b-4[8:1],
8b>3[8:1]*-3[8:1],8b<5[8:1]*-5[8:1],8b,{16}4,3,2,1,
{4}8/7b-4[8:1],1/7,{8}2,8/6,1/7,2/8,
{4}1/2-5[8:1],8/2,{8}1/7,1/3,8/2,7/1,
{4}8/6-3[8:1],3/6,{8}8/4,7/3,6/2,5/1,
{4}8pp3[2:1],5h[8:1],6h[8:1],7,
{8}8-4[8:1],8,2-6[8:1],2,{4}5<8[8:1]*>2[8:1],5,
{8}3x,8/2,7/1,6/8,{4}7-3[8:1]/5-1[8:1],7/5,
{8}4,3,2,1,6/8,7/1,8/2,1/3,
2-6b[8:1],2,{4}2/4b-8b[8:1],4b>1b[8:1]*<7b[8:1],4bw8[8:1],
4b/Cf,6x<2[4:1],2>6[4:1],6,
{8}2,1,{4}8>4[4:1],4<8[4:1],8,
1bxqq6[4:3],{8}4,3,2,3,3,4,
5-1[8:1],5,{4}5-7[8:1]*-8[8:1],5-3[8:1]*-2[8:1],5,
{8}7b/8b,{16}1,8,{8}2,7/3,{4}6/4,{8}2/1,{16}8,1,
{8}7b,2/6,{4}5/3-7[8:1],{2}3<6[8:1]/7>2[8:1],
{16}7,8,6,1,5,2,4,3,1b,2,8,2,7,3,6,4,
{32}5bx,6,7,8,1,2,3,4,5bx,6,7,8,1,2,3,4,{4}5bxw1b[8:1],5b,
{8}Cf,{16}7,8,{8}7,6/1,{16}7,8,{8}7,1/6,{16}8,7,
{8}8,1/6,{16}8,7,{8}8,6/1,8/3,4/5,7/2,
1b-5b[8:1],{16}2,3,{8}4,4-8[8:1],{16}7,6,{8}5,5-1b[8:1],4,
3<6[8:1],2,8-4[8:1],7,8/2-6b[8:1],3,{4}2,
{8}3/8,{16}2,2,{8}1,3/8,{16}2,2,{8}1,8/3,{16}1,1,
{8}2,8/3,{16}1,1,{8}2,3/8,1/6,5/4,2/7,
8b>4b[8:1],{16}7,6,{8}5,5V71[8:1],{16}2,3,{8}4,4-8b[8:1],5,
6>3[8:1],7,1-5[8:1],2,1/7-3b[8:1],6,7,4,
{1}Cf/5b>5-3-1-7-5[2:15],
,,,3xz7-5[2:7],
{4},,,,,,,,,,,,4/5<8[2:1],
4,4,4,
8/1>4[2:1],8,8,8,
4/5p8[2:1],3,2,1,
5/1p4[2:1],6,7,8,
{8}1/3,8,{24}3,4,3,4,,,{4}8/7,{8}8/6,1,
{24}6,5,6,5,,,{8}7,8/4,3/1,2,8/2,1,
{16}8bh,4,7,3,6,2,5,1,7bh,3,5,1,6bh,3,8,4,
{32}1b,8,7,6,5,4,3,2,1b,8,7,6,5,4,3,2,{4}1b/5w1[8:1],5,
{8}Cf/B7/B3,{16}6,5,{8}6,{16}3,4,{4}3-5-1[4:1],{8}3/8-6[8:1],8,
{4}8b-4b[8:1],5/8b<5b[8:1],3/8b>3b[8:1],4/8b,
{8}2/6pp4-7[8:5],5,6,4,3,2,1-5[8:1],2,
{4}6/1b<6[8:1]*>4[8:1],1bv6[8:1],1/3<6[8:1],3,
{8}Cf,{16}3,4,{8}3,{16}6,5,{4}6-4-8[4:1],{8}6/1-3[8:1],1,
{4}1b-5b[8:1],4/1b>4b[8:1],6/1b<6b[8:1],{8}1b/5qq3>6[8:5],5,
{4}5/1h[2:1],{8},,,,8-4[8:1],7,
{4}3/8b>3[8:1]*<5[8:1],8bv3[8:1],8/6>3[8:1],6,
{8}1b-5[8:1],{16}6,7,{8}1>4[8:1],{16}6,7,{8}1b-5[8:1],{16}6,7,{8}1,8,
{4}7-4[8:1]/4-8[8:1],7/4,6-1[8:1]/1-5[8:1],6/1,
{8}8b-4[8:1],{16}2,3,{8}8<5[8:1],{16}2,3,{8}8b-4[8:1],{16}2,3,{8}8,1,
{4}5-1[8:1]/2>5[8:1],5/2<7[8:1],6-2[8:1]/2-6[8:1],Cf,
{8}7/1,{16}8,6,{8}7,{16}1,3,{8}2,{16}8-4[8:1],7,{8}6-1b[8:1],8,
6b-2b[8:1],3,6bpp4[8:3],1,6b/4,3,2,{16}1,1,
{8}2b-5[8:1],2,6v1[8:1],6,{16}2,3,4,5,8,7,6,5,
{8}4/3,5/2,5/6,4/7,{16}1-5[8:1],8/4,7/3,6/2,{64}5/1b,Cf,,,,,,,,,,,,,,,{8}6x/7x-4[8:1],
{16}8,1,{8}2/7,2x-5[8:1],{16}1,8,{8}2/7<4[8:1],8x,{16}2,1,
{8}8,{16}1x/5x,2/6,{8}3/7,{16}1,1,{8}8-4[8:1],2-5[8:1],8,2,
6b,{16}2,2,{8}8,3b/5b,{16}7,7,{8}1,6b/4b,{16}1/5,2/6,
{8}3/7,{16}8b/4b,7/3,{8}6/2,3/7,5/1b,7,4/8b,2,
3b/2x-5[8:1],{16}1,8,{8}7/2,7x-4[8:1],{16}8,1,{8}7/2>5[8:1],1x,{16}7,8,
{8}1,{16}8x/4x,7/3,{8}6/2,{16}8,8,{8}1-5[8:1],7-4[8:1],1,7,
3b,{16}7,7,{8}1,6b/4b,{16}2,2,{8}8,3b/5b,{16}8/4,7/3,
{8}6/2,{16}1b/5b,2/6,{8}3/7,6/2,4/8b,2,5b/1,7/8,
{1}2b/4b>8V64-2-8<4[4:15],
,,,{8}6,
6,5,5,,4,6,4,
8,2,,1,,1,2,3,
8,7,6,1,2,3,8,7,
6,5,,8,3,2,1,8,
E
