&title=Thunderstrike 1988
&artist=Sephid
&first=-0.01
&des=タマモクロス
&lv_5=13
&inote_5=(190)
{1},
{8}
3b/6h[8:3],,,5h[8:3],,,4h[8:3],,,3h[8:3],,,4,,5,,
2h[8:3]/6,,,4h[8:3],,,5h[8:3],,,7h[8:3],,,5-1[8:1],8,1/5,,
2-4[8:1],4,2,6,7-5[8:1],5,7,3,
2-5[8:1],5,2,7,8-4[8:1],4,8,2,
{16}
1,4,1,4,2,5,2,5,3,6,3,6,4<3[4:3],7,4,7pp4[16:9],
4,,,,,,,,,,,,,,,,
{4}
5b/1b,,,,6h[1:1],,,,7h[1:1],,,,8V25[4:3],,3,,
4h[1:1],,,,3h[1:1],,,,2h[1:1],,,,1s5[2:1],,6,,
5<1[2:1],5,5,5,4<1[2:1],4,4,4,3<1[2:1],3,3,3,2>1[2:1],2,2,2,
{8}
21,2,23,2,25,2,27,2,
82,8,74,4,25,5,17,1,
{16}
6,8,6,8,6,1,6,1,7,2
,7,3,7,4,7,5,
8,,,,8,,,,8w4[8:1],,1,,8b,,,,
2b/5b,,3,4,3,,5-7[32:3],,2,,5b-2[8:1],,,,5b,,
8,,2,1,2,,7,5,6,,3,4,2,,2,,
17,,6,5,6,,4-2[32:3],,7,,4b-7[8:1],,,,4b,,
1-4[8:1],,,,8/1-6[8:1],,,,1-5[8:1]/2,,,,18,,,,
7h[8:1]/4,,,,6h[8:1]/2,,,,5h[8:1],,1b,,5h[8:1],,1b,,
2h[8:1]/5,,,,3h[8:1]/7,,6,5,6,,3,4,2,,18,,
2,1,2,8,2,7,2,6,
{24}2,3,4,8b,7,6,1,2,3,7b,6,5,
{8}
4-8[8:1]/3-8[8:1],,,,1h[8:1]/7h[8:1],,6/2,,
{16}
3-5[32:3],,,,35,,,,6h[16:3],,,5h[16:3],,,4,,
4-6[32:3],,,,46,,,,28,,,74,,,35,,
,,5,,5-3[32:3],,,,35,,,2h[16:3],,,1,,
82,,28,,28,,,,7<4[8:1],,,4,7b,,2,,
2-4[32:3],,,,24,,,,5h[16:3],,,4h[16:3],,,3,,
3-5[32:3],,,,35,,,,64,,,52,,,71,,
,,6,,6-4[32:3],,,,64,,,3h[16:3],,,1,,
83,,83,,83,,4,5,6,7,8,1,2,3,4,5,
6b-1[8:1],,,,16,,,,2-4[16:1],,,2-8[16:1],,,2,,
5-1[8:1],,,,51,,,,28,,,35,,,64,,
,,7,,7-3[8:1],,,,4-2[16:1],,,4-6[16:1],,,4,,
2,,17,,17,,17,26,3/5,,,87,,,15,,
3b-8[8:1]/7,,,,83,,,,7-5[16:1],,,7-1[16:1],,,7,,
4-8[8:1],,,,48,,,,12,,,75,,,34,,
,,2,,2-6[8:1],,,,5-7[16:1],,,5-3[16:1],,,5,,
7,,83,,83,,38,47,5b/6b,,,1b/2b,,,3b/7b,,
{4}
1bV38[4:6]/5b>7[4:14],,,,,,,,6>3[4:6],,,,,,,,
{8}
6h[4:1],,,6h[8:2],,,5h[8:2],,
,5h[8:2],,,6h[8:2]/4h[8:2],,,,
4h[8:2],,,4h[8:2],,
,3h[8:2]/5h[8:2],,
,3h[8:2]/5h[8:2],,,3v4[32:3]/6v5[32:3],,,,
7b/2h[8:3],,3,4h[8:3],,3,2h[8:3],4,,4h[8:3],,3,2h[4:1],,8,,
2b/7h[8:3],,6,5h[8:3],,6,7h[8:3],5,,5h[8:3],,6,7h[4:1],,1,,
48,4,3,3,62,2,1,1,
84,8,7,7,62,6,5,5,
{12}
2,2,4,3,3,5,
{16}
4,6,4,6,3,7,2,8,
1-5[8:1],,,,5V38[4:1]*V72[4:1],,,,,,,,,,,,
{24}1-6[8:1],2,3,4,,,
{16}1-4[8:1],,,,1-6[8:1],,7,,1,,3,,
25,,3,4,3,,2,1,2,,3,5,3,,17,,
{24}8-3[8:1],7,6,5,,,
{16}8-5[8:1],,,,8-3[8:1],,2,,8,,6,,
74,,6,5,7,,2,4,3,,6,5,47,,,,
{24}4-7[8:1]*-6[8:1],3,2,1,,,
{16}4,,,,2-5[8:1],,3,,7-3[8:1],,7,,
1-4[8:1],,2,,6-2[8:1],,6,,8-3[8:1]*-4[8:1],,1,,,,,,
{24}5-2[8:1]*-3[8:1],6,7,8,,,
{16}5,,,,7-4[8:1],,8,,2-6[8:1],,1,,
8-4[8:1],,,,8V62[4:1]/4V26[4:1],,,,,,,,,,,,
{24}1<6[8:1],2,3,4,,,
{16}1>4[8:1],,,,1-5[8:1],,7,,1,,3,,
26,,3,5,3,,2,8,2,,3,4,3,,28,,
{24}8>3[8:1],7,6,5,,,
{16}8<5[8:1],,,,8-4[8:1],,2,,8,,6,,
73,,7,5,6,,2,4,3,,6,5,6,,,,
{24}65,4,3,2,,,
{16}8h[8:1]/2h[8:1],,,1h[8:1]/7h[8:1],,,5/6h[4:1],,5,,5,,
{24}5,4,3,2,,,
{16}8h[8:1]/2h[8:1],,,1h[8:1]/7h[8:1],,,4/6h[4:1],,4,,4,,
{24}4,3,2,1,,,
{16}1h[8:1]/7h[8:1],,,5h[8:1]/6h[8:1],,,4h[8:1]/2h[8:1],,,1h[8:1]/8h[8:1],,,
75,,34,,21,,87,,
{32}5,4,3,2,1,8,7,6,
{16}5w1[8:1],,,,
{4}
5b<4[4:16],,,,,,,,,,,,,,,,
5<4[4:8],,,,,,,,
5<4[4:3],,,5<4[8:4],,,
{16}
8,1,2,3,4,5,6,7,
1b/8b,,,,25,,3,,4/6h[16:3],,,7h[16:3],,,8>3[8:1],,
3V57[4:1]*<7[4:1],,,,,,,,,,1-5[8:1],,,,1,,
8b,,,,64,,3,,25,,,1,,,8p4[8:1]
,,,,82,,2,,2,3,4/5h[16:3],,,6h[16:3],,,7,,
8b/1b,,,,74,,6,,5/3h[16:3],,,2h[16:3],,,1<6[8:1],,
6V42[4:1]*>2[4:1],,,,,,,,,,8-4[8:1],,,,8,,
1b,,,,35,,6,,47,,,8,,,1q5[8:1]
,,,,17,,7,,7,6,5/4h[16:3],,,3h[16:3],,,2,,
1b/8b,,,,25,,3,,4/6h[16:3],,,7h[16:3],,,8>3[8:1],,
3V57[4:1]*<7[4:1],,,,,,,,,,1-5[8:1],,,,1,,
8b,,,,64,,3,,25,,,1,,,8p4[8:1]
,,,,82,,2,,2,3,4/5h[16:3],,,6h[16:3],,,7,,
1b/7b,,,,35,,6,,47,,,8,,,1p4[8:1]
,,,,17,,7,,73,62,5/1,,,37,,,46,,
2b/8b,,,,64,,3,,25,,,1,,,8q5[8:1]
,,,,82,,2,,26,37,4b/8b,,,2b/6b,,,1b/8b,,
2b/7b,,,,45,,,,45,,,,45,,4,,
53,,3,,52,,,,45,,,,45,,4,,
53,,3,,52,,,,45,,,,45,,4,,
53,,,,52,,2,,53,,3,,54,,,,
8b,5,6,5,6,5,6,5,7b,4,5,4,5,4,5,4,6b,3,4,3,4,3,4,3,5b,2,1,2,1,2,1,2,
{32}
1b,8,7,6,5,,,,1b,2,3,4,5,,,,8b,7,6,5,43,,,,1b,2,3,4,5,6,7,8,
{16}
1/5b,,,,1,,,,1s5[8:1],,5,,1b,,,,
{16}2/7-3[8:1],,3-5[12:1],,7,,2,,
{16}2,,{24}2/5-1[8:1],36,47,58,,,5,,,
{16}8,,7,,62,,3,4,
{16}2,1,2,7,8,7,1,,
{16}1-6[8:1]/7,,6-4[12:1],,1,,7,,
{16}7,,{24}7/4-8[8:1],36,25,14,,,4,,,
{16}1,,2,,37,,8,1,
{16}6,5,7,2,4,3,5,,
{16}26,,8,2,1,,3,7,
{16}1,,{24}1-5[8:1],28,73,46,,,1,,,
{16}6,,6,2,8,,1,7,
{16}8,,{24}71,26,53,4w8[8:1],,,26,,,
{16}4,,,,17,,1,8,
2,1,2,1,3,8,4,7,
4,3,2,1,4,5,6,7,
18,2,3,4,1,8,7,6,
1b-5[8:1],4,8,5,
{16}1b,,,,
{16}7,,{24}7/3-7[8:1],62,51,48,,,3,,,
{16}1,,2,,83,,6,5,
{16}8,1,7,3,4,2,5,,
{16}8-3[8:1]/1,,3-5[12:1],,8,,2,,
{16}2,,{24}2/6-2[8:1],73,84,15,,,6,,,
{16}8,,7,,61,,3,4,
{16}1,8,2,6,5,7,4,,
{16}28,,7,6,53,,8,7,62,,{32}8,71,62,53,4,,,,26,,,,
{16}71,,2,3,46,,1,2,37,,{32}1,28,37,46,5,,,,37,,,,
{16}82,,46,,71,,35,,8,2,7,1,
{32}7b,6,5,4,1b,2,3,4,
{4}
6V82[16:7]/5<4[16:10],,,,
{16}
8b-5[8:1],,,,81,,,,3/4-7[8:1],,,,41,,1,,
8-5[8:1]/2,,2,,38,,,,4-7[8:1]/1,,,,3/4,,3,,
8-5[8:1]/2,,2,,18,,,,4-7[8:1]/3,,,,1/4,,1,,
8-5[8:1]/2,,,,38,,3,,4-7[8:1]/2,,2,,14,,,,
1b-4[8:1],,,,18,,,,6/5-2[8:1],,,,58,,8,,
1-4[8:1]/7,,7,,61,,,,5-2[8:1]/8,,,,6/5,,6,,
1-4[8:1]/7,,7,,81,,,,5-2[8:1]/6,,,,8/5,,8,,
1-4[8:1]/7,,,,61,,6,,5-2[8:1]/7,,7,,85,,,,
8b-4[8:1],4,6,2,8b,,,,2-4[12:1],,,,27,,7,,
2-5[8:1]/6,,6,,52,,,,2-4[12:1]/8,,,,2/7,,7,,
2-5[8:1]/6,,6,,52,,,,2-4[12:1]/8,,,,2/7,,7,,
2-5[8:1]/6,,,,62,,6,,2-4[12:1]/7,,7,,28,,,,
{8}
57,7,34,3,21,2,24,2,35,3,47,7,68,6,65,6,
{16}
25,,25,,37,,37,,6,2,5,2,4,2,3,2,
1-6[8:1],,,,4-8[8:1],,,,8-5[8:1]*-3[8:1],,,,,,,,
2b/6b,,3,4,3,,5<8[8:1],,1,,{24}1b,2,3,4,,,2b,3,4,
{16}57,,7,5,6,,2,4,3,,6,5,7,,7,,
28,,6,5,6,,4>1[8:1],,8,,{24}8b,7,6,5,,,7b,6,5,
{16}2/4-1[8:1],,,,6/4-7[8:1],,,,4-8[8:1]/2,,,,46,,,,
7/1,,7,,62,,6,,{24}5h[8:1],,,1b,2,3,4/5h[8:1],,,1b,2,3,
{16}6/4,,6,,5/3,,2,4,3,,6,5,7,,81,,
7,8,7,1,7,2,7,3,
{32}7,6,5,4,8b,7,6,5,1,8,7,6,5b,4,3,2,
{8}
1w5[8:1],,,,3h[8:1]/7h[8:1],,2<7[8:1]/6>3[8:1],,
{4}2bqq5[4:13]/6bqq1[4:13],,,,,,,,,,,,,,,,
4>5[4:4],,,,3>6[4:3],,,,2<7[4:3],,,,
{8}3,,6,4,5,3,4,,
