&title=ユリイカ
&artist=ロクデナシ
&first=1.1
&des=Hanami
&lv_6=12.7
&inote_6=(126),
{16},,,63,,,,,,5,,,,4,,,,3,,4
,,3,2,,,1,,81,,,,3,,4,,54,,,
,,,6,,5,,,6,,,76,,8h[4:1],,3,4,,,4,,3,,,,
81,,72,,6h[8:3],,3h[8:7],,,,,,,,5,,,,4,,,,3,4,,,4,,3,,45,,36,,27,
,8/1-7[16:3],,,,,7-2[16:2],,2-6[16:2],,6-3[16:2],,3-5[16:2],
,,,,,,,Ch[24:7],,,,
,,,E8,B8,B1,E2,,,
6xb,,5,6h[16:3],,,4b,,3xb,,4,3h[16:3],,,5b,,
1xb,,2,1h[16:3],,,3b,,4xb,,6,,8b,,1,,7xb,,8,7h[16:3],,,1b,,2xb,,1,2h[16:3],,,8b,,
2-5[12:1]/6-1[12:1],,1/5,2-8-5[16:4]/6-4-1[16:4],,,,,,,,,,,,,
8h[16:2]/1h[16:2],,,2/7,,,8/1,,2h[16:2]/7h[16:2],,,
3/6,4h[16:1]/5h[16:1],,3/6,,4,5,4,5,,,3h[16:1]/6h[16:1],,8b/1b,,E8,E2,Ch[16:2],,,,
6,,5,7h[16:3],,B2,,,3,,4,2h[16:3],,B7,,,7,8,1-5[12:1],2-6[12:1],,,,,,,,,,,,,,,
7x/4x,6,5,,6x/4x,5,4,,4/5,,8,,1,,Ch[16:10],,,,,,,,,,E8,E1,E2,,,,
,,2x/5x,3,4,,3x/5x,4,5,,8/1,,5,,4,,Ch[16:10],,,,,,,,,,E4,E5,E6,,,,,,
1,2,3h[16:6],,8,7,6h[16:3],,,,5h[16:3],,4h[16:2],,,,4h[16:4]/5h[16:4],,,,,,,
,,,E1,,6-8-4[16:3],5,4-1[12:2],,,,,,,,,,E5,,,,3-1-5[16:3],4,5-8[12:2],,,,,,,
,,,E8/E2,B7/B2,B6/B3,,,,5<8-4[16:5]/4>1-5[16:5],,8/1,,5/4,,,,,,,,,,,,
8<5-1[16:5]/1>4-8[16:5],,5/4,,8/1,,,,,,,,,,,,8-4[16:1],,4-8[16:2],,8<1[16:3],,,,,,,,,,5/4,,
8/1-5[16:1],,7,,1/8-4-6-2-4[16:6],,2,,1,,,,,,,,1-5[16:1],,5-1[16:2],,1>8[16:3],
,,,,,,,,,8/1-4[16:2],,1/4-7[16:2],,1/7-1[16:2],,1-5-7-3[16:4],,,,,,,,
,,,,1>3[16:2],,2>4[16:2],3<8[16:3],1,,,,,,,,,,
8/1,,2/7,,3/6,4h[12:2]/5h[12:4],,,,,,,6,7,,,8h[16:14],,1h[16:12],
,,,,,,,,,,,,,,,1b/Ch[16:10],,,,,,,,,,,,E7,C,E3,,7h[16:2]/3,,,6,7,,6,,
2h[16:2]/6,,,3,2,,3,,4/5,,7/8,7/8,,1/2,1/2,,E2/B2/B1,
,7x,,8x,,1bx,,2b,,,,7/6,,2/3,,5,,4,5,4,,5,,3,,3,6,,,6,,3,,,,E8/B8/B7,,,
,5/1,,5,4,,8h[16:1],,,8/4,,8,1,,5h[16:1],,,4,5,4,5h[16:2],,,4,8,,E8,E1,E2,
,,D7,6hb[16:7],,,D3,3hb[16:3],,,,,6h[16:2]/3h[16:2],,,6/3,,
5,4,,4,5,4,5,,,4/5,,4-1[16:1]/5-8[16:1],,,,4b/5b,,,
{24}
,7bx/3bx<7[16:3],,,,8,,1,,2,,3,,4bx/8bx>4[16:3],,,5,,6,,7,,8,,1bx/5bx<1[16:3],,,
2,,3,,4,,5,,6,,7,,,,,8bx/1bx,,,,,,4bx/8bx<4[16:3],,,3,,2,,1h[12:1],,,,8,,
3bx>7[16:3]/7bx,,,6,,5,,4,,3,,,2b,,
{16}
,1-5[16:2],8-4[16:2],,,,,,,,,
Ch[16:4],,,,
6xb,,5,6h[16:3],,,4b,,3xb,,4,3h[16:3],,,5b,,
1xb,,2,1h[16:3],,,3b,,4xb,,E8/E7,,4b,,E2/E3,,7xb,,8,7h[16:3],,,1b,,2xb,,1,2h[16:3],,,8b,,
2-5[12:1]/6-1[12:1],,1/5,2<2[16:8]/6>6[16:8],,,,,,,,,,,,,,,,,,,,,,,,,,,,,,,,,,,,,,,,,
,,,,3h[16:3],,,,,,,,
3h[16:3],,,,,,,,3h[16:3],,,,,,,3h[12:1],,,,,,,,,
3h[16:7],,,,,8,,,7h[16:7],,,,,
6,,,8h[16:7],,,,,1,,,2b/7b,,,,,,,,
6h[16:7],,,,,1,,,2h[16:7],,,,,
3,,,1h[16:7],,,,,7,,,2b/7b,,,,,,,,
5<8[16:2]/4>1[16:2],,8qq5[16:6]/1pp4[16:6],,5/4,,,,,,,,,,,,
8<5[16:2]/1>4[16:2],,5pp8[16:6]/4qq1[16:6],,8/1,,,,,,,,,
,,,1-5[16:1],,5-1[16:2],,1>8[16:3],,,,,,,,,,8/1-5[12:1],,
7,,1/8-4[12:1],,2,,1,,7,,8,,1,,2,,8-4[16:1],,4-8[16:2],,8<1[16:3],
,,,,,,,,,8-5[16:2]/1,,8/5-2[16:2],,8/2-8[16:2],,8-4-2-6[16:4],,,,,,,,
,,,,8<6[16:2],,7<5[16:2],6>1[16:3],8,,,,,,,,,,
8/1,,2/7,,3/6,4h[12:2]/5h[12:4],,,,,,,6,7,,,8h[16:14],,1h[16:12],
,,,,,,,,,,,,,,,8b/Ch[16:10],,,,,,,,,,,,E3,C,E7,,
7h[16:2]/3,,,6,7,,6,,
2h[16:2]/6,,,3,2,,3,,4/5,,7/8,7/8,,1/2,1/2,,E2/B2/B1,
,7x,,8x,,1bx,,2b,,,,7/6,,2/3,,5,,4,5,4,,5,,3,,3,6,,,6,,3,,,,E8/B8/B7,,,
,5/1,,5,4,,8h[16:1],,,8/4,,8,1,,5h[16:1],,,4,5,4,5h[16:2],,,4,8,,E8,E1,E2,
,,D7,6hb[16:7],,,D30,3hb[16:3],,,,,6h[16:2]/3h[16:2],,,6/3,,
5,4,,4,5,4,5,,,4/5,,4-1[16:1]/5-8[16:1],,,,4b/5b,,,
{24}
,7bx/3bx<7[16:3],,,,8,,1,,2,,3,,4bx/8bx>4[16:3],,,5,,6,,7,,8,,1bx/5bx<1[16:3],,,
2,,3,,4,,5,,6,,7,,,,,8bx/1bx,,,,,,4bx/8bx<4[16:3],,,3,,2,,1h[12:1],,,,8,,
3bx>7[16:3]/7bx,,,6,,5,,4,,3,,2b,
{16}
,,1-5[16:4],8-4[16:4],,,,,,,,,
