&title=Peach Pit and Cyanide(桃核与氰化物)
&artist=Mili
&first=-0.92
&des=TragiC
&lv_5=13+
&des_5=TragiC
&inote_5=
(154){4},{16},,,,,,,,,,B3,B4,
{2}7h[8:3]/E5,{4}1/E7/B6/E6,2,
{2}4/3h[4:1],{4}6/E5/B4/E4,7,
{2}2/8h[8:3],{4}3/E8/B7/E7,4,
{12}7/5h[4:1],,,,,6,{4}4,3,
{2}5/2h[8:3],{4}8/E3/B3/E4,7,
{2}5/6h[4:1],{4}4/E7/B6/E6,3,
{6}1/2h[8:3],8x,{12},,{4}3/7,{12}6<4[8:3],5,,4/6,
,,,,1,{6}1-5[8:1],{12}5,1b,,,6,
4,6,8h[4:1],,4,{4}4,{12}1,5,3,
{6}7h[4:1],{12}5,5,,,6,2,8,4h[4:1],,2,
{4}2,{12}1-5[8:1],3,7,{4}1-3[8:1],1/6-8[8:1],
{6}4/6,{12}3,1-5[8:1],,7,{4}1,4b/8b,
{12}3,5,3,1h[4:1],,5,{4}5,{12}8,4,6,
{6}2h[4:1],{12}4,4,,,3,7,1,5h[4:1],,7,
{4}7,{12}8-4[8:1],6,2,{6}8,{12}1,5<4b[2:1],3,7h[3:1],
E6,E7,E8,E1,E2,E3,{2}8bxh[2:1]/E4f,
{4}5,4,{12}3b/7h[4:1],,,,,6,
{4}5-1-6[2:1],{12}4,,3,{4}3,{12}2,,1,
{4}7,{12}6,,5,{4}4-8-5[2:1],6,
5-3-1[2:1],{12}6,,7,{4}7,8,
7/1,6p2<5[1:1],{12}5h[4:1],,,,,4,
4,,,,,3,{4}3,{12}2,,8,
{4}1,7/5>2[4:1],{2}6h[4:1],
{4}7/1,2q6[4:1],{12}8h[4:1],,,,,5,
7,4,6,3,5,2,4<7[4:1],,,,,1,
1,,,,,2,{4}2,{12}3/7,,6,
{4}5-3[8:1],5<8[4:1],{2}2h[2:1],
{4}1-5-2[2:1],{12}8,,7,{4}7,{12}6,,5,
{4}5-7[8:1],5p8[4:1],8>3[4:1],{12}A7,A6,A5,
{4}4xh[4:1],{12}3,,6,{4}5-1[8:1],7/5<8[4:1],
{6}2,3,4,{12}5h[4:3]/E1,E2,E3,E4,E5,E6,
{4}E7,{12}7,,4x,8bxh[2:1],{24},,,,,,,,B5,B4,
{12}E4f,,,,,2,8-5[8:1],1,7,8>4[4:1],,,{4}4<8[4:1],
8-3[8:1],1-5[8:1],1-3[8:1]/4-7[8:1],
{12},,,8,2,2,4-7[8:1],3,5,4>8[4:1],,,{4}8<4[4:1],
4-8[8:1],{6}3,{12}2,7-4[8:1],,,{6}7/1,
{12}2,3-8[8:1],,5,{6}3,6,{12}7,1,
{4}5-8[8:1],{12}2,,3,{4}3-7[8:1],{12}5,,6,
{2}8-3[8:1]*-5[8:1],{6}2/6,{12}3,5-2[8:1],4,6,
{6}5,{12}7,1-6[8:1],8,2,{6}1,3>5[3:1],{12}7,3,
{4}5-2[8:1],{12}8b,,7,1-4[8:1],8,2,1<5[4:1],,,{4}5>1[4:1],
1-6[8:1],8-4[8:1],5-2[8:1]/8-6[8:1],
{12},,,1,7,7,5-2[12:1],6,4,5<1[4:1],,,{4}1>5[4:1],
5-1[8:1],{6}6,{12}8,2-5[8:1],,,{6}8/2,
{12}6,4h[6:1],,,{2}3/7h[2:1],
{4},2,{24}1h[4:1]/E5,B5,B6,E7,,,,,,,,,{2}6/2h[2:1],
{12}4,3,5,1,7,7,
5,6,4,7,3,8,2,4,3,6,5,7,
1,4,3,8h[4:1],,,1,7,2,6,3,3,
5,4,6,3,4,2,8,1,7,5h[6:1],,6,
4,5,3,4,2,8,1,7,5,6,4,4,
8,3,7,2,6,1,4,2,8,3,7,5,
6,4,5,2h[6:1],,1,3,8,4,7,5,5,
6,2,4,1,8,5,7,4,6,3,5,2,
{6}4h[6:1],{12}8,6bx/2bx,,,7,1,7,5h[4:1],,3,
{4}3,{12}1,3,7,{6}1h[4:1],{12}5,5,,,8,
6,2,8h[4:1],,4,{4}4,{12}1-5[8:1],3,7,
{4}1-3[8:1],1/6-8[8:1],{6}4/6,{12}3,1-5[8:1],,7,
{4}1,4b/8b,{12}2,8,2,4h[4:1],,6,
{4}6,{12}8,6,2,{6}8h[4:1],{12}4,4,,,1,
3,7,1h[4:1],,5,{4}5,{12}8-4[8:1],6,2,
{6}8,{12}1,5<4b[2:1],3,7h[3:1],E6,E7,E8,E1,E2,E3,
8bxh[1:1]/E4f,{4},,,{16},{48},{24}B5,B4,
{1}E4f,
{4}5/1<6[8:1],5>2[8:1],1<5[4:1],5>1[4:1],
1p5[4:1],5p1[4:1],{6}8,7,6,
{4}1/5>2[8:1],1<6[8:1],5>1[4:1],1<5[4:1],
5p1[4:1],1p5[4:1],{6}5,4,3,
{4}2/8>3[8:1],4<7[8:1],8>4[4:1],4<8[4:1],
8q4[4:1],4q8[4:1],{6}1,2,3,
{4}8/4<7[8:1],8>3[8:1],4<8[4:1],8>4[4:1],
4q8[4:1],8q4[4:1],{6}5,6,7h[6:1],
{12},,4b/8b,2b/6b-1[8:1],,,{4}2-5[8:1],8-6-1[4:1]/2-4-1[4:1],
{12},,,,,,{6}2/8,7,6,
4/5p1[8:1],{12}3,3<1[8:3],,,{4}7>3[4:1],{12}3<1[8:3],,5,
{2}5h[8:3],{6}7bx/3bx,,1,
2/6,{12}3,5-1[8:1],{6}4,7/5,{12},8,2,,{6}3/7,
{12}6,4-8[8:1],{6}5,2/4,{12},1,7,,{6}2/6,
{12}3,5-2[8:1],4,6,{6}5,{12}7,1-5<3[4:3],8,{24}2,3,
{1}1/4h[2:3],
{24}B4,B5,{12}E6,{4},,,{16},{48},{24}B3,
B2,{12}E2,,{4}8,{6}7,6,5,
{1}3h[4:3]/4>6[4:3],
{4},4,{6}3,2,1,
{1}7h[1:1]/8<2[4:3],
{12},,,1,{24},,7x,8x,{12}7x-3[8:1],,,,,2,
{6}4,{12}3,5-2[8:1],4,6,{6}5,{12}7,1-6[8:1],8,2,
{6}1,3>5[3:1],{12}7,3,{4}5-2[8:1],{12}8b,,7,
1-4[8:1],8,2,1V75[4:1],,,{4}5-2[8:1],8,
{12}7,1,6,4,5,3,4,2,8,1,7,7,
4-1[8:1],5,3,4V68[4:1],,,{4}8-3[8:1],4,
{12}6,5,7,7,2,4,3,5,4,6<4[2:1],,,{1}7bxh[2:1],
{24}6,5,{12}4/2h[6:1],,8,,3,{6}7h[4:1],{12}5,5,,4,
8-5[8:1],2,6,8>4[4:1],,,{4}4<8[4:1],8-3[8:1],
1-5[8:1],1-3[8:1]/4-7[8:1],{12},,,8,2,2,
5-8[8:1],3,7,5>1[4:1],,,{4}1<5[4:1],5v8[8:1],
{6}3,{12}1,1-5[8:1],,,{6}1/7,{12}6,6-1[12:1],,4,
{6}6,3,{12}2,3,{6}8/4-8[8:1],{12}7,7-3[8:1],,1,
{4}7,2x-5[8:1]/4x-8[8:1],{12},,,,,,{6}3/7,
{12}8,4-8[8:1],6,2,{6}4,{12}1,5-1[8:1],3,7,
{6}5,6<4[3:1],{12}2,6,{4}4-7[8:1],{12}1b,,2,
6-1[8:1],4,8,6>2[4:1],,,{4}2<6[4:1],6v1[8:1],
4-8[8:1],4<7[8:1]/8>3[8:1],{12},,,4,6,6,
3-8[8:1],5,1,3<7[4:1],,,{4}7>3[4:1],{12}3v8[8:1],,4,
{6}4,{12}5,1-5[8:1],,,{6}6/1,{12}7,7>2[8:1],,,{1}3h[4:3],
{24}4x,3x/5x,{12}2xh[3:2]/6xh[3:2],,,,,,,,,7/1,7/1,
8,2,4,3,5,7,4,8,5,1,6,2,
7,3,5,2,8,5,7,4,6,3,5,2,
4,3,8,1,7,5,6,2,4,3,7,5,
6,3,4,1,8,2,7,5,6,3b,4,4,
1,1,7,5h[6:1],,8,4-7b[8:1],6,2,4,,2,
6,6,8,4h[6:1],,1,5-1b[8:1],3,7,5,,8,
2,4,3,5,7,4,8-4b[8:1],6,2,8,,1,
5,3,7,5h[6:1],,1,{6}4/8,7/3,{12}6/2,1/5,
{1}4bx/8bxpp3[4:11],
{24}4,5,6,7qq4b[8:13],
E
