&title=AFTER PANDORA
&artist=削除
&first=0
&des=KuSA
&des_6=KuSA
&lv_6=14+
&inote_6=(85)
{4},,,
{48},,1,28,37,4/6,5-1[4:7],,,,,,
{4}
6h[4:1],,5h[4:1],,
4h[4:1],,3h[4:1],,
{32}8,7,6,2,3,4,7,6,5,3,4,5,
6,5,4,2,5,3,6,4,7,5,8,6,7,8,1,2,3/7,,,,
18,2,3,7,6,5,2,3,4,6,5,4,3,4,5,
7,4,6,3,5,2-6[56.66#12:1],4,1,3,2,1,8,7,6-2[12:1],5,4,,,,,,,,,,
{16}1,,7h[4:1]/8,,6h[8:1],,,,3h[4:1]/2,,4h[8:1],,,,
{48}2/5,,,4,3,5,4,,,5,,,5/6,,,4/7,,,
{16}
3>8[56.66#12:1],,8<5[56.66#12:1],,6,,4,4,,
3,3-8[56.66#12:1],,1-6[56.66#12:1],,7-4[56.66#12:1],,5-2[56.66#12:1],,
,,,,,,8h[4:1],,1,,6,,7h[4:1]/4-1[56.66#12:1],,5,5,3,,4-7[56.66#12:1]/5,6,6,5,2,,
4/8-3[56.66#12:1],1,1,2,7,,8/5-1[56.66#12:1],4,4,3,2,3,4-8[56.66#12:1]/5,,
6,,5/7,6,3h[4:1],,,,2h[16:1],4h[16:1],6>3[56.66#12:1],,2<7[56.66#2:1],,48,,
,,,,,,,,6>3[56.66#4:1],,,,,,,,,,,,,1,8,7,
6h[8:1],4,3,5h[8:1],3,2,3h[8:1],5,6h[8:1],5,3h[8:1],
4-1[56.66#8:1],5-8[56.66#12:1],,,
3,7,4,5,,,,
{24}
12,38,74,5h[8:1]/6,,,8h[8:1],,,5,74,36,5h[8:1]/2,,,1h[8:1],,,
3,24,35,{16}6h[4:1]/4,,,1,1,1,2h[16:1],3h[16:1],4,5h[16:1],6h[16:1],7,
8<5[56.66#16:1],1,1,6,4,2,1>4[56.66#16:1],3,3,6,8,2,6,
{48}
6,7,8,{16}1,1,3,4,2/5h[8:1],3,4,5h[8:1]/8,7,6,
5h[8:1]/3,2,1,4h[8:1]/3,2,1,3h[8:1]/2,1,2h[16:1],4h[16:1],5h[16:1],7h[16:1],
6-1[56.66#16:1],5h[16:1],4h[16:1],3,4,5,2-7[56.66#16:1]/6-3[56.66#16:1],,,,1,5,
{32}6b/2b,,,,,8,1,2,3,45,6,7,8,1,7,2,6,3,5,4,6,3,5,4,6,5,7,8,6,1,7,2,8,3,1,2,
4>1[56.66#12:1],3,5,4,6,5,7,6,8,5,,,
4<7[56.66#12:1]/8b,,,,,,,,,,,,
8/4-8[56.66#12:1],,,,1,,,,3/7^4[56.66#12:1],,,,
4^1[56.66#12:1],,,,,,,,,,,,,,,,8,,,,72,,,,
6,5,6,4,5,4,7,5,7,3,5,2,5-2[56.66#8:1],1,5-8[56.66#12:1],1,6,1,7,1,8,,,,,,,,,,,,
3/7,,,,7/8-5[56.66#16:1],,,31,,,25,,,64,,,
8-3[56.66#16:1],3,2,1,8,7,6,5,4,3,2,1,8,7,6,5,4,
2,1,8,7,6,5,4,
7-3[56.66#24:1]/3,,,,1-4[56.66#24:1]/2,,,,5-8[56.66#24:1]/6,,,,
7,,,,1,,,,5,,,,5,7,4,6,3,5,2,4,1,3,3,2,4,3,5,4,6,5,7,8,
6,5,4,3,2-6[56.66#24:1]/6,,,,8-5[56.66#24:1]/7,,,,4-1[56.66#24:1]/3,,,,
2,,,,8,,,,4,,,,
6h[16:1]/8h[16:1],,,7h[16:1]/1h[16:1],,,2h[16:1]/8h[16:1],,,
{128}1h[16:1],3h[16:1],{64},,,{32},
2h[16:1]/4h[16:1],,,
{128}5h[16:1],3h[16:1],{64},,,{32},
{128}4h[16:1],6h[16:1],{64},,,{32},
5/7,,,
{48}8b,1,8,1,8,1,8,1,8,1,8,1,
{40}7b,2,8,1,7,2,8,1,7,2,
{32}6b,3,6,5,6,4,6,3,
{28}5b,4,6,3,5,3,5,
{24}4b,4,6,6,5,5,
{20}3b,4,6,5,3,
{16}2b,3,5,7,1b,3,
{8}5h[8:1],7h[8:1],1h[8:1],
{4}3h[4:1],
{8}5h[8:3],,,7h[48:41],,,,3h[48:17],,,
{48}8/4,5-2[56.55#6:1]/1,6-1[56.55#48:7]/2,3h[48:12]/7h[48:15],,,,,,,,,
{4},,
{16}
7<4[56.55#20:1]/3,,8,1,25,,7/3^8[56.55#20:1],,12,,4/6,,
3/7<4[56.55#20:1],,6,8,3,1,3^8[56.55#20:1]/7,,25,36,47,,
3/6bv1[56.55#20:1],,{32}7,8,7,8,7,,,,6/2v5[56.55#20:1],,,,
3,4,3,4,3,,,,2/6V82[56.55#12:1],,,,
8,7,6,5,4w8[56.55#20:1],,,,3b/6b,,,,5,,,,4b,,,,
2>5[56.55#20:1]/6,,,,B4,B3,B2,B1,B8,,,,
2x/6x^1[56.55#20:1],,,,B8,B7,B6,B5,B4,,,,
6x/2x-8-3[56.55#12:1],,,,3-7-4-6[56.55#8:1],4,2,5,1,6,8,7,,,,,,,,,,,,,
1xb-3[56.55#24:1]/8xb-4[56.55#24:1],,,,,,65,,4/7,,,,
1-5[56.55#20:1]/8-6b[56.55#20:1],,,,2/7,,,,3/4,,2,,
1x>4z8b[56.55#6:1]/8x<5s1b[56.55#6:1],,,,,,2/7,,45,,,,E1f/E2/E8/A8/A1/D1/D8/D2,,,,,,,,
,,,,
{64}2xb/1xb,83,74,6/5h[32:6],,,,,,,,,,,,,7h[32:3],,,,,,,
86,15,24,3-8[56.66#24:1],,,,,,47,,6,,5,,6,,47,,,,,,,,7,6,5,4h[32:6],,,,,7,,,,,,,,
{48}1,2,3,5,6,7,1b/8b,,,,,,
{32}2,4,3,5,4,6,5,,
{64}7xb/8xb,16,25,3/4h[32:6],,,,,,,,,,,,,2h[32:3],,,,,,,
13,84,75,6-1[56.66#24:1],,,,,,{32}25,3,4,3,5/2,,,,
{64}2,3,4,5h[65:12],,,,,2h[32:4],,,,,,,,
{48}1,8,73,26,51,84,3b/7b,,,,,,
{32}7,8,6,1,5,2,4/3,,
{64}2h[8:1]/1,8,7,6,5,,,,{32}4,3,5,4,6,5,7,,
{64}7h[8:1]/8,1,2,3,4,,,,{32}5,6,4,5,3,4,2,,
{64}2h[8:1]/1,8,7,6,5,,,,{32}4,3,5,4,6,5,7,,
{64}7/8,1,2,3,7/4,,,,56,,,,3/4,,,,2/8,,,,1/7,,,,
{48}3x,5,3,5,3,5,{48}3,2,1,8,7,6,5,4,37,,,,
{48}6x,4,6,4,6,4,{32}6,,75,,45,,24,,
{48}1x,3,1,3,1,3,{48}1,8,7,6,5,4,36,27,18,,,,
{48}8,7,6,1-5[65.66#24:1],2,3,7,6,5,2,3,4,
{64}8,7,6,5w1[56.66#64:17],4w8[56.66#4:1],3,2,1,
{4}Cf,,,
{8}C,,,C/B7/B2,,,
{32}2,4,3,5,4,5,3,4,E2/B1/A1,,,,7,5,6,4,5,4,6,5,E8/B8/B7,,,,
2,1,3,8,4,7,5,6,7,5,8,4,1,3,2,1,3,8,4,7,5b/6b,,,,
{48}1b,8,1,8,1,8,1,8,1,8,1,8,
{40}2b,7,1,8,2,7,1,8,2,7,
{32}3b,6,3,4,3,5,3,6,
{28}4b,5,3,6,4,6,4,
{24}5b,5,3,3,4,4,
{20}6b,5,3,4,6,
{16}7b,6,4,2,8b,6,
{8}4h[8:1],2h[8:1],8h[8:1],
{8}6h[8:2],4,2h[8:3],8V64V28b[56.66#2:1]*V24V68[56.66#2:1],
6,4,
