&title=イオ
&artist=ロクデナシ_Rokudenashi
&first=-1.33
&des=SIINAMOKU
&lv_5=13
&inote_5=(133)
{1},
{4}6h[4:1],5,5h[4:1],4,4h[4:1],3,3h[4:1],C1h[4:1],
{16}1,8,2,7,1,8,3,6,E2,E8,E3,E7,B1,B8,E4,E6,
{16}1,8,3,6,2,7,4,5,B1,B8,E4,E6,E3,E7,C1,,
{16}6,5,7,4,8,3,8,3,5,4,6,3,7,2,7,2,
{16}4,3,5,2,6,1,6,1,7-3[8:1],,B5/B6,,{4}B2/B1,
{16}1,8,2,7,1,8,3,6,E2,E8,E4,E6,B1,B8,E3,E7,
{16}1,8,3,6,2,7,4,5,E2,E8,B4,B5,E3,E7,C1,,
{16}6,5,8,4h[16:3],8,7,6,5,3,4,1,5h[16:3],1,2,3,4,
{16}5x/7x,,6,5,6,,3,4,2-6[8:1],,1/8,,{4}2/5,
{4}7h[4:1],2,7-5[8:1],{8}7-1[8:1]/4,4,
{4}4h[4:1],6,4-6<7[8:1],{8}4-2[8:1]/8,8,
{4}8h[4:1],1,8-2>3[8:1],{8}8-6[8:1]/5,5,4,4,5,{4}2>5[8:1]*q6[8:1],2,{8}8,
{8}1h[8:1]/7h[8:1],,2/6,,{16}3,4,5-8[8:1]/2,,,,4/5,,
{8},3,2/1,8,7/2q5[4:1],,C1,,
{8}6,6,1/6,1,8<5[8:1]/1,,3/8,4>1[8:1],,4,5,6,7h[8:1]/5,3,2h[8:1]/4,{16}8,8,
{4}B6,B4/E5,{16}B1/B2/E3,,6/5,4/7,,3,4,3,
{8}2-6[8:1]/5,3,2/7-4[8:1],8,1-5[8:1]/7,{16}2,2,{4}1/8,
{8}6h[8:1],5,6h[8:1],4,{16}6,7/3,,1/8,,2,4,3,
{16}5,,,4/6,,,{8}2/5,4h[4:1]/8,A3/D3/E3,A7/D7/E7,,
{4}2-6[8:1]/5,7-1[8:1]/2,3-5[8:1]/7,7-3[8:1]/3,
{8}2-8[8:1]/7,2,6-4[8:1]/2,6,C1h[4:1]/6,,{16}8,1,2/7,,
{8}E3,E4,E5,E6,E7,,4,4,
{8}6x,5x,4x,3x,{2}2xw6[8:1],
{8}8bV64[8:1],4>5[4:1],8,,C1f,,
{8}2bV46[8:1],6<5[4:1],2,,C1f,,
{8}7h[8:1],5h[8:1],4h[8:1],2h[8:1],
{8}8-5[8:1],8,4-1[8:1],4,6pp4[4:1],,3,2,
{8}1-3[8:1],,1-7[8:1],,1-5[8:1],B3/B4,B8/B7,,
{8}6,4/7,3,2>4v1[4:1]/5,,2/5,6,7v4<6[4:1],,7/8,1,2,3-6[8:1]/8,,
{8}7v2-8-6-4[2:1],,3h[4:1],,,,B1/B2,6,4/5,3,
{16}2x/5x,,3,4,3,,6,5,7-2[8:1],,3h,,{4}3h,
{16}4/6,,3,4,{8}2-4[8:1],7-1[8:1],2-6[8:1],7,2,,
{16}8/2,,7,8,{8}7-5[8:1],3-1[8:1],7-3[8:1],3,7,,
{16}2h[8:1],,1,8h[16:3]/3,,,1,,6h[8:1],,5-7-1[8:1],4/7,,,5/3,,
{12}E2,E3,E4,E7/E1,E6,E5,{8}1-5[8:1]/C1,3/7,1/8,,
{16}6v1[8:1]/4,,,5,6,,5,,{4}4<7[8:1]/6,
{16}3v8[8:1]/4,,,4,3,,4,,{4}5>2[8:1]/3,
{8}5/6,7,8pp8>7[4:3]*qq8<1[4:3]b/1,,
{1}A8f,{16}4h[8:1]/5,,8,7,6/5,,1,2,{8}3-6-4-2[16:3]/4,7h,7h,,
{16}8,1,7,2,8,1,6,3,E8,E2,E7,E3,B8,B1,E6,E4,
{16}8,1,6,3,7,2,5,4,B8,B1,E6,E4,E7,E3,C1,,
{16}3,4,2,5,1,6,1,6,4,5,3,6,2,7,2,7,
{16}5,6,4,7,3,8,3,8,2-6[8:1],,B4/B3,,{4}B7/B8,
{16}8,1,7,2,8,1,6,3,E8,E2,E6,E4,B8,B1,E7,E3,
{16}8,1,6,3,7,2,5,4,E8,E2,B5,B4,E7,E3,C1,,
{16}3,4,1,5h[16:3],1,2,3,4,6,5,8,4h[16:3],8,7,6,5,
{16}4x/2x,,3,4,3,,6,5,7-3[8:1],,4/5,,{4}7/1,
{4}2-7-4[2:1],4,5,6,6-1-4[2:1],4,3,2,
{4}2-6-3[2:1],5,7,1,1v8<6[4:1],3,5v4>2[4:1],6,
{8}8h,8,1/2-5[8:1],3,2/8-4[8:1],,8/3,,
{8}1h,1,7-4[8:1]/8,6,5-1[8:1]/7,,5/6,,
{8}8h,7,6/5,4,3-6[8:1]/2-7[8:1],,2/3,,
{4}1p4[4:1],4>6[4:1],C1f,{16}5h[16:1],,5h[16:1],,
{16}1x-5[8:1]/5,2x,{8}3x-7[8:1],1,3,6h[8:1],{16}5,4,{4}3/7,
{16}8x-4[8:1]/4,7x,{8}6x-1[8:1],8,6,3h[8:1],{16}4,5,{4}6/2,
{16}3,3/4,,6,6/5,,3x,4x/2x,,6x,7x/5x,,B7/B2/C1,,3,5,
{16}4,6,,2,5/4,,6,8z4[8:1]/1s5[8:1],{8},,,,
{4}7-1[8:1]/4,7/3-5[8:1],3/6-2[8:1],6/1-5[8:1],
{8}7-4[8:1]/1,7,7/3-8[8:1],3,3/C1h[4:1],,{16}1,8,2/7,,
{8}E7,E6,E5,E4,E3,,5,5,
{8}3,4,5,6,7/3,7/3,7>2q4[8:7]b/3<6q8[8:7],7/3,{1}7x/3x,
{2}E2,E6,B3,B7,C1,{4}E5,E4,B5/E3,E1,E7/B4,E1,
{8}3h[8:1],5,3h[8:1],4,3h[8:1],6,3/4,5/2,
{8}6h[8:1],4,6h[8:1],2,6h[8:1],8,6/5-1[8:1],,
{8}5b/C1/7b,,7x/8x,8x/1x,1x/2x,3x/4x,4x/5x,5x/6x,
{16}7,7,8,6,2,2,1,3,{2}7xw3[8:1],
{8}1bV35[8:1]b,5<6<7>8>1>2>3<4[4:1]b,1/5,,C1f/B1/B8,,
{8}7bV53[8:1]b,3>2<1<8<7<6>5>4[4:1]b,7/3,,C1f/B5/B4,,
{8}2h[8:1],4h[8:1],6h[8:1],8h[8:1],
{8}1-4[8:1],2,5-8[8:1]/1,6,3qq5[4:1]/5,,6,7,
{8}8b<5[8:1]*<5[8:1],,8>3[8:1]*>3[8:1]/3,,8-4[8:1]/4,B6/B5,B1/B2,,
{8}3,2/5,6,4/7-3-5<8[4:1],,8,1,2-6-4-8[4:1],,1,8,7,6-3[8:1]/1,,
{8}6/2v7>5[2:1],,2/6h[4:1],,,,B5/B6,7,6/4,3,
{16}2/5,,3,4,2,,6,5,7s3[8:1]/4,,3h,,{4}3h,
{16}2b,1,4,7,{8}2-6[8:1],7-4[8:1],2-8[8:1],7,2,,
{16}6b,5,8,3,{8}6-8[8:1],1-5[8:1],6-2[8:1],1,6,,
{16}3h[8:1],,4,2/5h[16:3],,,4,,7h[8:1],,8V64[8:1],1/6,,,3/8,,
{12}E2,E3,E4,E1/E7,E6,E5,{8}C1/1b-4[8:1]*-6[8:1],3/7,1,,
{16}3v8[8:1]/5,,,4,3,,4,,{4}5>2[8:1]/3,
{16}6v1[8:1]/5,,,5,6,,5,,{4}4<7[8:1]/6,
{8}3/4,2,1qq1<2[4:3]*pp1>8[4:3]b/8,,{1}A1f,
{16}6h[8:1]/5,,3x,4x,1x-5[8:1]/5x,,7x,6x,1x>8[4:1]b/5x,,,,1,,,,
{4}C1f,7-2[8:1],3-6[8:1]/7,7h[4:1]/3,
{16}8,7,1,6,8,7,2,5,B8,B7,E3,E5,B1,B6,C1,,
{16}6,5,7,4,8,3,8,3,5,4,6,3,7,2,7,2,
{16}4,3,5,2,6,1,6,1,7-3[8:1]b,,B5/B6,,{4}B2/B1/7x,
{16}2,1,3,8,2,1,4,7,E3,E1,E5,E7,B1,B8,E4,E6,
{16}1,8,3,6,2,7,4,5,E2,E8,B4,B5,E3,E7,C1,,
{16}6,5,8,4h[16:3],1,8,7,6,3,4,1,5h[16:3],8,1,2,3,
{16}6,5,8,3h[16:3],2,1,8,7,6/2,2,4,4,6>1[8:1]*>1[8:1],6,8,8,
{2},
E
