&title=Long shot
&artist=前島麻由/TVアニメ「Re:ゼロから始める異世界生活2nd season」後半クールOPテーマ
&first=2.3
&des=Ragna
&wholebpm=135
&demo_seek=53.8
&demo_len=14.5
&des_5=Ragna
&lv_5=13
&inote_5=(135){16}
E1/B1/B8/B2/B7/C/B3/B6/B5/B4/E5,,,,,,,,,,,,,,,,
B5/6h[8:1],,,B4/3h[8:1],,,B6/7h[8:1],,,B3/2h[8:1],,,8b/Cf,,,,
7,,46,,3,4,2,,6,5,7,,18,,27,,
3,,45,,6,5,7,5,8-4[8:1],,1-5[8:1],,8,,1,,
6,,74,,3,4,2,,6,5,7,,1x,1x,1x,1x,
2h[8:1],,4,3,,6h[8:1]/5h[8:1],,,4bh[8:1]/B8,,,5bh[8:1]/B2,,,4b/B6,,
3-6[8:1],,,,7h[4:1],,,,5h[16:3],,,4h[16:3],,,3-5[10:1],,
,,6,,6,,4h[8:3],,7^4[8:1],,8,,,,,,
2-5[8:1],,,,4h[4:1],,,,6h[16:3],,,8h[16:3],,,1-6[8:1],,
,,5pp2[8:3],,5h[2:1],,,,,,,,,,,,
7-3[8:1],,,,2h[4:1],,,,4h[16:3],,,5h[16:3],,,7-5[10:1],,
,,1,,1,,4h[8:3],,2^7[8:1],,3,,,,,,
6-1[8:1],,,,5h[4:1],,,,8h[16:3],,,2h[16:3],,,4-8[8:1],,
,,1-7-3-5[8:3]b,,1h[2:1],,,,,,,,,,,,
D1/A8/A1/E8/E1f/E2/B8/B1,,,,,,,,34,,,65,,,D8/A7/A8/E7/E8f/E1/B7/B8,,
,,,,,,,,65,,,34,,,D2/A2/A1/E3/E2f/E1/B2/B1,,
,,,,,,,,3/4-8[8:1],,,,,,,,
6/5-1[8:1],,,,,,,,3-8[8:1]/7v4[8:1],,,,3/7/Cf,,,,
1^4[8:1]/5^8[8:1],,,,15,,,,12,,,34,,,5/6-1[8:1],,
7,,6/5-2[8:1],,4,,65,,7h[16:3],,,1h[16:3],,,3q1q7[8:5]b*p5p7[8:5]b,,
,,,,,,,,,,,,,,,,
3h[32:1],4,2,6h[32:1],5,7,2h[32:1],4,1,7h[32:1],5,8,1b,,,,
2xz6-4v1[2:1]/6x,,2x/6xh[8:5],,,,,,,,,,,,,,
7xs3^4v6[2:1]/2x,,7x/2xh[8:5],,,,,,,,,,,,,,
1xs5^6v3[2:1]/5x,,1x/5xh[8:5],,,,,,,,,,,,,,
4z8[8:1]*v1[8:1]b,,,,C,,,,5s1[8:1]*^4-8[8:1]b,,,,C,,,,
Ch[4:7]/B2,,,,B4,,,,B1,,,,B3,,,,
E5,,,,E2,,,,E3,,,,E1,,,,
2h[8:1]/B6/E6,,,,2h[8:1]/E4/B3,,,,15,,15,,26,,26,,
C,,,C,,,C,,C,,,,6bx/2bx-6[8:1],,1,,
2/7-3[8:1],,8,,7/1-5-1[16:3],,2,,1/4h[8:1],,,6h[8:1],,,8>4[32:5]/7,,
,,85,,6pp6[32:7],,7,,6/5h[8:1],,,4h[8:1],,,5/3V52[16:3]b,,
,,1,,1-5[8:1],,,,18,,,,64,,4/6V47[16:3]b,,
,,8,,8-4[8:1],,,,8/1w5[8:1],,,,1,,,,{32}
1b,2,3,4,5,6,7,8,1,2,3,4,5,6,7,8,{16}1/Cf,,,,35,,3-5[10:1]/5,,
,,3/7-3[8:1],,,,7/1s5[32:7],,,,14,,6,,7,,
84,,3,4,2,,15,,6,5,7,,4-8[8:1]/8,,3,,
4/5-1[8:1],,6,,45,,2,,4x,5x,4x,5x,3x-8[8:1],,2,,
3/6-3[8:1],,7,,6/1-6-1[32:7],,2,,1/5h[8:1],,,4h[8:1],,,2V46[32:5]/5,,
,,27,,8pp7[32:7],,1,,8/5h[8:1],,,4h[8:1],,,36,,
3>6<3[2:1]/6-4[10:1],,,,6<3qq5[256:139]/3,,,,3qq5[256:75]b,,,,6,,6h[2:1],,
,,,,,,1-5[8:1],,8-4[8:1],,1-3[8:1],,8,,1,,{32}
8b,7,6,5,4,3,2,1,8,7,6,5,4,3,2,1,{16}8/Cf,,,,64,,6-1[8:1]/4,,
,,6/2-6[8:1],,,,2/7V51[32:7],,,,75,,4,,3,,
2b>1[16:7]b/8b<1[16:7],,,,,,,,,,,,,,,,
18,,2z6[4:1]/7s3[4:1]b,,36,,,,,,,,4x,5x,4x,5x,
2bpp1[16:7]b/6xpp5[16:7],,,,,,,,,,,,,,,,
3bh[8:1]/B1/B2/E2f,,,5bh[8:1]/B3/B4/E4f,,,
7bh[8:1]/B5/B6/E6f,,,1bh[8:1]/B7/B8/E8f,,,
2b/6b,,8b/4b,,
,,,,,,,,,,,,,,,,
E
