&title=キミとボクへの葬送歌
&artist=ROKINA
&first=0
&lv_5=14+
&des_5=Sonata
&inote_5=
(220){4},,,,,,,,,,,,,,,,,,,,{1}6h[1:2]/Cf,
,2h[1:2],
,5h[1:2],
,1h[1:2],
{4},,,,7h[1:2],
5,4,3,
{32}B2,E3,,,,,,,{4}3,4,5,
3h[1:2],5,6,7,
{32}B6,E7,,,,,,,{4}6,5,4,
6h[1:2],4,3,2,
{32}E1,B1,,,,,,,{4}2,3,4,
2h[1:2],7,6,5,
4,5,{16}E7,E6,E5,E4,E3,E2,E1,E8,
{4}7x-5[8:1],7,8/2-5[8:1],2,
1/7-3[8:1],7,8/1-5[8:1],1,
{16}4/6-2[8:1],,,5,{4}6,{16}6/3-8[8:1],,,4,{4}3,
{16}1/5-1[8:1],,,3,5,,,8,4>1[8:1],,,6,{4}4,
{12}5b,4,5,3,4,3,6,5,6,3,4,3,
7b,5,6,2,4,3,8,6,7,1,3,2,
{16}8b,7,6,5,8,7,6,5,1,2,3,4,1,2,3,4,
5/1b,8,7,6,5/1,2,3,4,5/8,7,6,5,4/3,2,1,8,
{8}7x-3[8:1],1-7[8:1],7,1>4[8:1],,1/6,,5x-8[8:1],
,5/2,3,4,{16}8-4[8:1],7/3,6/2,5/1,{4}8,
{8}3x-8[8:1],4,5,6,7-4[8:1],8,1,2h[8:7],
{16}E1,B8,E8,E7,B6,E6,E5,B4,E4,E3,{8}B2,,8,
{16}7x/1h[4:1],6,5,4,{48},,,,,,{24}7/1h[8:1],6,5,{8}4,3/1,1/4,1/5,
6/2-7[8:1],7-1-3[4:1],2,6,5,4,,1,
2h[8:1],B5/E6/B6,7h[8:1],B3/E4/B4,8,7,6,8/A4,
7/A3,6/A2,5/A1,8/E5,7/E4,6/E3,{4}5/E2,
{8}2x-6[8:1],8-2[8:1],2,8<5[8:1],,8/3,,4x-1[8:1],
,4/7,6,5,{16}1-5[8:1],2/6,3/7,4/8,{4}1,
{8}6x-1[8:1],5,4,3,2-5[8:1],1,8,7h[8:7],
{16}E1,B1,E2,E3,B3,E4,E5,B5,E6,E7,{8}B7,{16},,,,1x/8h[4:1],
2,3,4,5,4,3,2,{4}7/1x,{8}6/4,3/5,
4/2x>5[4:1],1,8,7,8<5[4:1],1,2,3,
2,2-5[8:1]/7-4[8:1],1/8,2/7,,6,4/5,4/3,
{16}5,2,6,1,7,8,7,8,{32}6,5,4,3,2,1,8,7,{4}6b/Cf,
5x-7-1v6[8:5],{8}4/5,4h[8:3],{16},,,,,,,,A6,
E6,E5,A4,E7,B6,B4,E4,A7,B7,B3,A3,{4}1,
{16}2/E8,3,4,5,6,7,8,1,2/C,3,4,5,6,7,8,1,
{4}2/B6/E6/B5,7/B2/B1/E2,1/E8/B8/B7,8/B3/E4/B4,
4-8-2-5[8:5],{8}6/4,6h[8:3],{16},,,,,,,,A3,
E4,E5,A5,E3,B3,B5,E6,A2,B2,B6,A6,{4}8,
{16}7/E4,6,5,4,3,2,1,8,7/C,6,5,4,3,2,1,8,
{4}7/B3/E4/B4,2/E8/B8/B7,6/B1/E2/B2,3/B6/E6/B5,
7/4h[4:1],{8}5,6/3h[4:1],,4,{4}5/2h[4:1],
{16}6,4,6,4,7,5,7,5,8,6,8,6,{4}1,
3/6h[4:1],{8}5,4/7h[4:1],,6,{4}5/8h[4:1],
{16}3,5,3,5,2,4,2,4,1,3,1,3,{4}8h[4:1]/4h[8:3],
{12},,,6,5,6,{8}4/7,3/8,{12}2,1,3,
{8}4/8,5/7,4,3/5,6,5/7,3,2/4,
5/1,5/1,{16}2,3,{8}4,1/5,1/5,{16}8,7,6,5,
{8}1/4xh[8:1],{24}A2,A3,A4,{8}7xh[8:1],{24}E5,E4,E3,{8}6xh[8:1],{24}D3,D4,D5,{8}8xh[8:1],{24}E4,E3,E2,
{4}1bxh,{8}2h,{16}6h,4h,{8}5h,3h,7h,{16}3h,5h,
{8}4h,6h,2h,{16}5h,4h,{8}6h,3h,{4}2h,
7bh,{8}3h,{16}6h,5h,{8}7h,4h,8h,{16}2h,1h,
{8}3h,8h,2h,{16}7h,8h,{8}6h,1h,{4}2h,
3bh,{8}6h,{16}4h,5h,{8}4h,6h,2h,{16}6h,5h,
{8}6h,4h,7h,{16}3h,4h,{8}3h,5h,{4}6h,
2bh,{8}7h,{16}1h,8h,{8}2h,7h,2h,{16}7h,8h,
{8}6h,1h,7h,{16}2h,8h,{8}1h,7h,{4}8h,
{2}7xh[4:1]/2xh[8:3],{32}8,7,{16}6,{32},,2,3,{8}4,{32}7,6,{16}5,
,3>5pp4[16:7],,,,,,,,,,,,,,,{2}6xh[8:3]/3xh[4:1],
{32}2,3,,,7,6,,,3,4,,,6,5,,,{4}1h[4:1],
7h[4:1],5h[4:1],{32}E1,B8/E8,E7/B7,B6/E6,B5/E5,B4/E4,B3/E3,B2/E2/B1,
{2}3xh[4:1],{12}4,4,4,2,2,2,
{16}7,6,5,4,1,2,3,4,{2}8bw4b[8:1],
{4}2>5[8:1],{8}E4f,8>3[8:1],,E2f,{4}6<1[8:1],
{8}E8f,4<7[8:1],,E6f,{4}1w5[8:1],1,
1/7xh[8:1],2/7h[8:1],3/7h[8:1],4/7h[8:1],
5/7h[8:1],6/7h[8:1],7h[8:1]/8-4[8:1],8/6h[8:1],
7/3h[8:1],6/3h[8:1],5/3h[8:1],4/3h[8:1],
2/3h[8:1],1/3h[8:1],3h[8:1]/8-4[8:1],8/2h[8:1],
1x/5xh[8:1],2/5h[8:1],3/5h[8:1],4/5h[8:1],
6/5h[8:1],7/5h[8:1],5h[8:1]/8-4[8:1],8/6h[8:1],
8/2h[8:1],7/2h[8:1],6/2h[8:1],5/2h[8:1],
4/2h[8:1],3/2h[8:1],2h[8:1]/1<5[8:1],1/3h[8:1],
{12}2,3,4,5/8,6,7,8/4,1,2,3>7[3:1],,,7,
6,5,4,3,8,1,2,3,4>1[4:1],,,8,
7,6,5,4,3,2/7,1,8,7>3[3:1],,,2,
3,4,5,6,4,5,6,7,8/3,,,7,
6,5,4/1,3,2,1/5,8,7,6<2[3:1],,,2,
3,4,5,6,1,8,7,6,5<8[4:1],,,1,
2,3,4,5,4,3,2,1,8-2[8:1]/4-6[8:1],,,{4}4b-2[8:1]/8b-6[8:1],
8b>3[8:1]/4b<7[8:1],8bp4[8:1]/4bp8[8:1],4b/8b,
{1}Cf,
B7/E7,
E6,
B4/E5,
E1/B8,
E2,
{4}E3/B3,{8},,,,5/7,3,
{32}1h[8:1]/A7,D7,A6,D6,{8}A5,2,{32}8h[8:1]/A2,D3,A3,D4,{8}A4,7,{4}8bx/1bx,
{8}7x-4[8:1],1-5[8:1],7,1>4[8:1]*<6[8:1],,1,,5x-8[8:1],
,5/2,3,4,{16}8-4b[8:1],7/3,6/2,5/1,{4}8,
{8}3x-8[8:1],4,5,6,7-4[8:1],8,1,2h[8:7],
{16}E1,B8,E8,E7,B6,E6,E5,B4,E4,E3,{8}B2,,8,
{16}7x/1h[4:1],6,5,4,{48},,,,,,{24}2/8h[8:1],3,4,{8}5,6/8,8/5,8/4,
8/3,8/2,{24}8-5[8:1],7,6,4v1[8:1],3,2,{8}8,4,,5,
6-2[8:1],6,7-3[8:1],7,8-4[8:1],8,1-5[8:1],1,
2,3,4,1/E5,2/E6,3/E7,4/E8,E1,
2x-5[8:1],8-4[8:1],2,8<5[8:1]*>3[8:1],,8,,4x-1[8:1],
,4/7,6,5,{16}1-5b[8:1],2/6,3/7,4/8,{4}1,
{16}2x,3,2,3,1,4,1,4,8,5,8,5,7,6,7,6,
{4}7>5b[8:3],{8},,,,7,6,
{16}7b/1h[4:1],8,2,3,4,5,6/4,3/7,{4}2/8,{8}5/1,2/6,
7/3x-8b[8:1],4,5/A3,6,7-4b[8:1],8,1/A7,2,
3,7/8,1/2,4/3,6/5,{16}8,7,8,6,1,5,
2,4,3,5,4,6,3,7,{32}2,1,8,7,6,5,4,3,{4}6-3[8:1]/2-7[8:1],
{1}6b/E7/E3/2b-8-6-4-2<1<8<7<6>5>4>3>2b[2:7]`Cf,
,,,{8}7-4[8:1],
7,8,1,2-5[8:1],2,1,8,
7-4[8:1],6,8,1,2-5[8:1],3,1,8,
7-4[8:1],8/6,1,2,3-8[8:1],2/4,5,6,
7-2[8:1],8/6,5,4,{4}3-8[8:1]*-7[8:1],3,
{12}1,2,3,4/1,2,3,4/8,7,6,8/5,7,6,
5/1,4,2,5,3,6,4,7,5,8,,,1,
8,7,6/4,3,2,1/6,5,4,3/1,8,7,
{4}6-1[8:1]*-2[8:1],6,8-4[8:1]*-3[8:1],8,
{12}8,7,6,5/8,7,6,5/1,2,3,4/1,2,3,
4/8,7,6,5/1,2,3,5/4,6,7,8/1,2,3,
{8}4/6,6-1[8:1]/4-1[8:1],6/4,6/4,,,8/2,8-5[8:1]/2-5[8:1],
8/2,8/2,{24},,,,,,{12}7,5,6,2,4,3,
{1}8bq6q4b[4:15]*p2p4b[4:15],
E
