&title=Flashes
&artist=Hommarju
&first=0
&des=Noka
&des_5=
&lv_5=13+
&inote_5=(180){4},{2},{4}7pp5[2:3]/3q5[2:3],
{1},{4},,,2qq4[2:3]/6p4[2:3],
{1},{4},,,6qq8[2:3]/3pp1[2:3],
{1},{4},,,1>1[2:3]*s5[8:5],
{1},{4},,,2/8h[4:1],
,6/1pp4[2:1],,5,
5q1[8:1],3/5,,7/1h[4:1],
,3/8qq5[2:1],,4,
4p8[8:1],4/6,,4/6h[4:1],
,6/3pp8[8:7],,8,
7-3[8:1],7,,5/3h[4:1],
,3/6qq1[8:7],,1,
2-6[8:1],2,,6h[8:1]/4h[8:1],
6h[8:1]/4h[8:1],5h[8:1]/3h[8:1],5h[8:1]/3h[8:1],6h[8:1]/2h[8:1],
6h[8:1]/2h[8:1],7h[8:1]/1h[8:1],7h[8:1]/1h[8:1],{8}8,8,
7/1,7/1,6/2,6/2,5/3,5/3,{32}2,3,4,5,6,7,8,1,
2qq4[16:5],3,4,5,6,7,8,1,{4},,3b/5h[4:1],
{8},1V35[8:1],5-2[8:1],1,{4}7-3[8:1],7b,
{8},8V64[8:1],4-7[8:1],8,{4}2v5[8:1],2/8<4[8:1],
{8}8,3,{16}3-7[8:1],4,2,5,{4}3qq5[4:3],{16}5,{8},{16}5,
{8},6,{16},6,{8},{4}8w4[8:1],8b,
{8},2-5[8:1],5V31[8:1],2,{4}7-3[8:1],7b,
{8},7-4[8:1],4V68[8:1],7,{4}2-6[8:1],1/2bV41[16:3],
,{16}7-3[8:1],8,6,1,{4}7pp5[4:3],{16}4h[8:1],{8},{16}4h[8:1],
{8},3h[8:1],{16},3h[8:1],{8},{4}1w5[8:1],1b,
{8},8V64[8:1],4v7[8:1],8,{4}2-6[8:1],2b,
{8},1V35[8:1],5v2[8:1],1,{4}7v4[8:1],7/1>5[8:1],
{8}1,6,{16}6-2[8:1],5,7,4,{4}6pp4[4:3],{16}4,{8},{16}4,
{8},3,{16},3,{8},{4}1w5[8:1],1b,
{8},7<4[8:1],4q1[8:1],7,{4}2-6[8:1],2b,
{8},2>5[8:1],5p8[8:1],2,{4}7-3[8:1],1/7V58[16:3],
,{16}2-6[8:1],1,3,8,{4}2,{16}5,4,3,2,
4,3,2,1,3,2,1,8,{4}7w3[8:1],7b,
,2pp5[8:7],,{16}5,6,7,8,
{4}1-6[8:1],1,,7pp6[2:1],
,4qq1[8:7],,{16}1,8,7,6,
{4}5-8[8:1],5,,1/7h[4:1],
1-5[8:1],1/3,,8/2h[4:1],
8-4[8:1],8/6,7,8qq4[4:3],
4qq3[4:1],{2},{4}1h[4:3],
,5h[4:1],,1/5,
5/1,2/6,6/2,3/7,
7/3,4/8,8/4,5/1,
1/5,2/6,2/6,3/7,
7/3,8/4,8/4,{8}2/6,3,
4/7,6,5/2,3,4/7,6,5/2,5/2,
3/6,6/3,4/7,4/7,5/8,5/8,{16}7,6,5,4,
1,2,3,4,8,7,6,5,2,3,4,5,{32}7,6,5,4,3,2,1,8,
7pp5[16:5],6,5,4,3,2,1,8,{4},,{16}2V84[4:1],4,{8}3,
2/5,6,{16}7h[16:3],{8},{16}4,{8},8,{16}2/1,3,4,5,
{4}6V42[16:3],{8}6,7v4[8:1],8,7,{16}3,2,{8}1-4[8:1],
4V25[4:1],1,{16}6,{8},{16}7,{8},8,{16}4/6h[8:1],3,2,1,
{8}8,{16}5/3h[8:1],6,7,8,{8}1,{4}5b,{16}7V15[4:1],5,{8}6,
7/4,3,{16}2h[16:3],{8},{16}5,{8},1,{16}7/8,6,5,4,
{4}3V57[4:1],{8}3,2v5[8:1],1,2,{16}6,7,{8}8-5[8:1],
5V74[4:1],8,{16}3,{8},{16}2,{8},1,{24}2/8,3,{48}4,{16},{48},7/1,,6,
,5,{16},{48},{24}2/8,3,4,{16},{48}1/7,,6,,5,{16},{48},{16}1,8,2,7,3V15[16:3],4,{8}2,
5/3,6,{16}7h[16:3],{8},{16}5,{8},4,{16}3/5,2,1,8,
{4}7V13[4:1],{8}7,6v1[8:1],5,6,{16}2,3,{8}4-1[8:1],
1V38[4:1],4,{16}7,{8},{16}6,{8},5,{16}1/7h[8:1],2,3,4,
{8}5,{16}8/2h[8:1],7,6,5,{8}4,{4}8b,2bqq5[2:1],
{8}5h[16:1],5h[16:1],5,6h[16:1],6h[16:1],6,{4}7bpp2[2:1],
{8}4h[16:1],4h[16:1],4,3h[16:1],3h[16:1],3,{16}1,2,8,3,
7,4,6,5,7,8,6,1,5,2,4,3,5,2,4,3,
6,1,5,2,7,8,6,1,7,2,8,3,{4}1p4[8:1]*-5[8:1],
{8}1,{4},{8}5,{4}6/4,8p3[8:1]*-4[8:1],
{8}8,{4},{8}4,{4}3/5,7-3[8:1],
{8}5/7V58[4:1],{4},{8}2-5[8:1],{4}2,8V64[8:1],
{8}8,1-5[8:1],,1/7,{4}8,8V64[8:1]*-5[8:1],
{8}8,{4},{8}3,{4}2/4,1V35[8:1]*-4[8:1],
{8}1,{4},{8}6,{4}7/5,2-6[8:1],
{8}4/2V48[4:1],{4},{8}6-1[8:1],{4}6,2V46[8:1],
{8}2,1-5[8:1],,3/1,{4}2,1bq3[2:3]*p6[2:3],
{1},{4},,,5pp1[2:3]*qq8[2:3],
{1},{4},,,2qq4[2:3]/6p4[2:3],
{1},{4},,,8qq4[4:7]/4qq4[4:7],
