&title=Walzer für das nichts
&artist=Aoi Sumito
&first=0
&des=Schuldig
&lv_5=14
&inote_5=(215)
{1},
{4},,2h[4:3]/8h[4:2],,,4h[4:3],,,8h[4:3],,,6h[4:3],,,1p3[2:1],,,5p7[2:1],,,4x-1[8:1],4x-7[8:1],4xw8b[8:1],4bx,,,7h[4:3]/1,,3,5h[4:3],,7,1h[4:3],,5,3h[4:3],,,8qq6qq4[2:1],,,2qq8qq6[2:1],,,5hx[4:5],,,,,{12}2x,3,4,7x,6,5,1x,2,3,8x,7,6,5/4,3,2,7,6,5/4,
{8},,
2-5[8:1]/8,,2/6-1[8:1],,6/4-8[8:1],,
4/5-7[8:1],,2-6[8:1]/5,,2bx,,
7-3[8:1]/3,,7/4-1[8:1],,4/8-5[8:1],,
8/3-7[8:1],,3bx,,8-4[8:1],8,
8/1-5[8:1],,1/7-3[8:1],,7bx,,
2-6[8:1],,2/4-8[8:1],,1-3[8:1]/4,1,
1/7-5[8:1],,7/4-8[8:1],,4bx,,
7-3-5[4:1]/2-6-4[4:1],,,,,,
1/2-6[8:1],3,2/8-4[8:1],7,1-5[8:1]/8,2,
1/7-3[8:1],6,7bx,,5/4,5/4,
5/4,,2/7,,1-5[8:1]/6,,
1/8-6[8:1],,8/2-6[8:1],,2bx,,
1/7,,1/8,1/8,7/3b,,
6/5,6/5,5/3,,8/2,,
8/2,2,6/4,6,1/5,1,
{16}2,6,2,6,3,5,3,5,{32}4,3,2,1,8,7,6,5,
{8}4-8-2[4:1]/8,,,6V47[4:1],,,
1-4[8:1],,1-6[8:1],,1,,
2-6-4[4:1],,,8V27[4:1],,,
5-2[8:1],,5-8[8:1],,5,,
3V57[4:1],,2,,1,,
8^2-4[4:1],,7,,6,,
5,5,2,2,7,7,
{16}1,8,1,8,2,7,2,7,{32}3,4,5,6,7,8,1,2,
{8}3/Ch[2:3],,,,,,
,,,,,,
1w5[1:1],,,,,,
,,,,,,
{4}2h[2:1],4,4,
7h[2:1],5,5,
1h[2:1],3,3,
8h[2:1],6,6,
4h[2:1],2,2,
5h[2:1],7,7,
1h[2:1],B1,C,
7h[2:1],B3,C,
1^6-2[2:1],5,5,
5V37[2:1],2,2,
2-6-3[2:1],8,8,
8z4^7[2:1],2x,2x,
2-6-3-8[2:1],7,7,
7<8[2:1],,,
4h[4:3],,,
6h[4:3],,,
{8}2^5[8:1],,2,,1,,
8h[2:1]/3,,6,,1,,
7^4[8:1],,7,,8,,
1h[2:1]/6,,3,,8,,
2^5[8:1]/6,1,2/6,,7,,
8h[2:1]/3,,6,,1,,
7^4[8:1]/3,8,7/3,,2,2,
1h[2:1]/6,,3,,8,,
{16}2/5,,2/5,,7/4,,7/4,,6,5,6,,
2,4,2,,3,5,2,6,1bx,,,,
4,5,4,,6,5,6,,7/4,,7/4,,
2/6,,2/6,,{32}E1,E2,E3,E4,E5,E6,E7,E8,{16}E1/C,,,,
{8}3/5,2,6/4,7,3/5,1,
6/4,7,3/5,2,6/4,8,
{16}3,7,3,7,2,6,2,6,1,5,1,5,
{8}8^3v8[4:1]/4^7v4[4:1],,,,,,
1b/5b,,,,,,
C,,E4,,E5,,
C/E6,,E8,B8,B1,E2,
C,,{16}D3,A3,D4,A4,{8},,
C/A6,,E6,B5,B4,E4,
C/A2,,E2,B1,B8,E8,
C,,E7,,E5,,
C/E3,,,,,,
1>6[2:1],,,,,,
8<3[2:1],,,,,,
1-7-3-5[2:1],,,,,,
6p1p4[2:1],,,,,,
2^5-1[2:1],,8,,7,,
6^3-7[2:1],,2,,1,,
8h[4:1],,4h[4:1],,2h[4:1],,
6,,7/3,2,1/5,6,7/2-5[8:1],,2/8-4[8:1],,8/1-5[8:1],,
1/6-1[8:1],,6/4-8[8:1],,4/7-3[8:1],,
7/2-6[8:1],,2/8-4[8:1],,8/3-8[8:1],,
3/5,,5,6,3,2,
1/8,8,7/2,7,6/3,6,
2/5,2,3/6,3,4/7,4,
{12}5,5,5,2,2,2,7,7,7,
{32}1,2,3,4,5,6,7,8,1,2,3,4,5,6,7,8,1,2,3,4,5,6,7,8,{8}1/Ch[1:1],
,,,,,,,,,,,
{8}1-5[8:1],1,7-4b[8:1],7,2b,1b,
6-1[8:1],6,2-5b[8:1],2,7b,8b,
8/3,,6/1,2,3-8b[8:1],4,
5-1[8:1]/3b,,5b/2-6b[8:1],,2b,,
7x/1x-5-3-7[2:1],,1x/6hx[4:1],,,,
8x-4-6-2b[2:1],,8bx/2hx[4:1],,,,
1bx,,1/8,1/8,2bv5b[8:1]/7b-4[8:1],1/8,
2b/7b,,E1,E7/E3,E5,C,1-5[8:1],2,1/8-4b[8:1],7,8/1b,2b,
6-1[8:1],5,6/2-5b[8:1],3,2/6b,7b,
8,{16}8x/1x,7x/2x,{8}6bx/3bx,3bx/6bx,4bx/5bx,,
1/8,,8/3,7,6/1,5,4h[4:1]/2-6-3-5-1[2:1],,2x,,8x,,
6x-2-7-1-5b[2:1],,6bx,,4x,,
{16}4,3,{8}2,2/7,,2/7,,
1<3[4:1],,/Cf,,,,
{16}1x-5[8:1],2,3/5x,6,{8}7-3b[8:1]/1b,,7b/2bx,,
{16}8x-4[8:1],7,6/4x,3,{8}2-6b[8:1]/8b,,2b/7bx,,
1bh[4:1]/8b,,3,4,5/2,6,
7-4[8:1]/3-8b[8:1],,7b/3b,,2b/6b,,
2-5^3-8[2:1],,8/2,8,7,7,
6-1^7-4b[2:1],,4/6b,4,3,3,
2x,2x,{64}2/A4,D5,A5,D6,A6,D7,A7,,{8},1/8,,
1/8,,3/5,3,6/4,6,
{16}2xv5[8:1],3,4/8x,7,{8}6v1b[8:1]/2b,,6b,,
{16}7xv4[8:1],6,5/1x,2,{8}3v8b[8:1]/7b,,3b,,
1b/6b,,3/4,4/5,5/6,2/5,
7/4,,2-5[8:1],2,2/7-4b[8:1],7,
7/3-5-2^8[2:1],,3/8,8,7,7,
6-4-7^1b[2:1],,6b/1,1,2,2,
3h[4:1],,2h[4:1],,1h[4:1],,
7h[4:1],,6h[4:1],,5h[4:1],,
1>5[4:1],,5<1[4:1],,1p4[4:1],,4>8[4:1],,8<4[4:1],,4,,
8h[4:1],,1,,1/8,1/8,
2h[4:1]/7,,4,,2/4,2,
3/5,5,6h[4:1]/4,,1h[4:1],,
8,,{16}E3/C,E4,E5,E6,{8}7-3-6[2:1],,
7,,2,,
1-5-2[2:1],,
1,,6,,7^4[8:1],,
2-5[8:1],,7-3[8:1],,1s5[4:1],,
,,,,2h[4:1]/C,,
4x,2/4,5,5/4,6/3,6,
6h[4:1]/3,8,1h[4:1],4,5h[4:1],7x,
{16}7x,8x,1x,2x,{8}3x/6x,3x,4x/7,4x,
3/5,3/5,6/4,6/4,7h[8:1]/3h[8:1],,
2-5[8:1],2,8-4[8:1],8,1-5[8:1],1,
7-4[8:1],7,3-8[8:1],3,6-1[8:1],6,
2-6b[8:1],2,2b/8-4[8:1],8,8b/3-8b[8:1],3,
3b/7-4[8:1],7,7b/1-5b[8:1],1,1b/8,8,
{12}2b,4,3,7b,5,6,1b,8,1,
{24}7bx,6,5,1bx,2,3,6bx,5,4,8bx,1,2,
{32}7bx,6,5,4,3-8-4-2-8b[143#16:29],2,1,8,
{4}7bx-4-8-6-4[4:11]/3bx,,,
,,
