&title=有明/Ariake
&artist=SIINCA
&first=0
&des=DeStINED fINaLE
&lv_6=14+
&inote_6=(190){1}{8},,,,,,,,6,5,4,3>8[95#12:1],6,5,4h[8:1],,,,5,4>1[95#12:1],7,6,5h[8:1],,,,6,5p5[95#6:1],8,7,6h[8:1],,,,,,E8,,E7,,6x/3,4,5,6<1[95#12:1],3,4,5h[8:1],,,,4,5<8[95#12:1],2,3,4h[8:1],,,,3,4q4[95#6:1],1,2,3h[8:1],,,1,2x,3,4,5,6,7,81,8,1,2>5[95#12:1],1,8,7h[8:1],,,,8,1>4[95#12:1],8,7,6h[8:1],,,,7,8q8[95#6:1],7,6,5h[8:1],,,,,,E3,,E2,,1x,1,8,7<4[95#12:1],8,1,2h[8:1],,,,1,8<5[95#12:1],1,2,3h[8:1],,,,2,1p1[95#6:1],2,3,4h[8:1],,,,4,3,2,1,8,7,7bq1<7<5q7b[95#16:24]/3bp1>3<5p3b[95#16:24],,
{1},,,
{8},,,,,,2h[8:2],3,4,3h[8:2],4,5,4h[8:2],5,6,5h[8:2],6,7,6,5,4,3,7h[8:2],6,5,6h[8:2],5,4,5h[8:2],4,3,4h[8:2],3,2,1-5[95#16:1],8,7,6,1b/5b,,6,,6h[8:2],5h[8:2],,4h[8:2],5h[8:2],,7h[8:2],6h[8:2],,3h[8:2],4h[8:2],,6,5,3,2,4h[8:2],3h[8:2],,2h[8:2],3h[8:2],,5h[8:2],4h[8:2],,3,4,5,
6h[8:3]/4,3,2h[8:4],,3,1h[8:4],,2,8h[8:4],,1,7h[8:3],,E1/B1,E7/B6,,
3h[8:3]/5,6,7h[8:4],,6,8h[8:4],,7,1h[8:4],,8,2h[8:3],,1,3,4,
{16}
5-7[95#16:1],,,,3-1[95#16:1]/4,,3,4,5,,1,,3,4,5,,
8-6[95#16:1],,,,1/2-4[95#16:1],,2,1,8,,4,,2,1,8,,
6-8[95#16:1],,,,5/4-2[95#16:1],,4,5,6,,2,,4,5,6,,
7h[8:1],,4,5,2h[8:1],,4,3,5,4,6h[8:1],,4,5,4,5,3-1[95#16:1],,4,,6-8[95#16:1]/4,,5,,3/5-1[95#16:1],,4,,4-8[95#16:1]/6,,5,,35,,4,,46,,5,,3-1[95#16:1]/5,,5-7[95#16:1],,4-8[95#16:1],,5,,3,,5,,4,,6,,1p7b[95#16:4],5p3[95#16:3],2,6,3,7,4,8,,,,,,,,,,,,26,2-5[95#16:1]/6-1[95#16:1],,48,,C/B3/A3/B7/A7,,,,2b/6b,,,,3,4,3,6,5-2b[95#16:1],6,4-7[95#16:1],5,4,6,5,6,5,,4x,,1h[8:1],,8,8,3h[8:1],,1,1h[8:1],,8,8h[8:1],,2h[8:1],,4h[8:1],,3,3h[8:1],,1,1h[8:1],,8,8h[8:1],,2-5V38b[95#32:5],2,,1,,7,,Ch[4:1],,,,,,,,
{32}8bxp6p4p2p8b[95#16:24],B8,Cf,B4,
{8}A4,,,4xh[8:2],,,4xh[8:2],,,4xh[8:2],,,4xh[8:2],,,3x,,2x,,2xh[8:2],,,3xh[8:2],,,4xh[8:2],,,4x,
{32}E5,E4,E3,E2,E1,E8,E7,E6,
{8}E5/8bx,,4h[4:1],3-6[95#16:1],5-8[95#16:1],7h[4:1],,3,5,4,7p3[95#16:1]*v4[95#16:1],24,15,86,,,26,,5h[4:1],6-3[95#16:1],4-1[95#16:1],2h[4:1],,6,4,5,
{24}2q6[95#16:1]*v5[95#16:1],3,4,1,8,7,62,,,,,,2b,,,,,,
{8}37,,1h[4:1],2-7[95#16:1],8-5[95#16:1],6h[4:1],,2,8,1,6p2[95#16:1]*v1[95#16:1],31,48,57,,,3V17V53[95#4:1]/7,,8V64-2-8b[95#16:4],7,6,,,,,,7,6,5-8[95#16:1]/Ch[4:1],,,,
1-4[95#16:1],2h[4:1],3,3,5-8[95#16:1],6h[4:1],7,7,1v4[95#16:1],2h[4:1],3,3,5v8[95#16:1],6h[4:1],7,7,1>4[95#16:1],2h[4:1],3,3,5<8[95#16:1],6h[4:1],7,7,1,2h[8:1],3h[8:1],4h[8:1],5w1b[95#8:1],6,7,8,,,,,8-5[95#16:1],7h[4:1],6,6,4-1[95#16:1],3h[4:1],2,2,8v3b[95#16:1],7h[4:1],6,6,4h[8:9]
,,,,,,,,,
{16}1,3,8,2,7,1,6h[8:3],,8b,,4b,,2b,,1b/7b,,
{8}
{16}
2,2h[8:1],,3-8[95#16:1],,1,1,,5,4,5,3,5,,7h[8:1],,2,8,3,1,2,4,3h[8:1],,5,4,6,5,7,6,8,6,8,6h[8:1],,7-4[95#16:1],,8,8,,1,8,1,7,1,,2,1,8,7,3,2,1,8,4,3,2,1,5,4,3,2,1bx/5bx,,
7,7h[8:1],,6-1[95#16:1],,8,8,,4,5,4,6,4,,2h[8:1],,7,1,6,8,7,5,6h[8:1],,4,5,3,4,2,3,1,3,1,3h[8:1],,2-5[95#16:1],,1,1,,8,1,8,2,8,,7,8,1,2,6,7,8,1,5,6,7,8,4,5,6,7,8bx/4bxqq5[95#8:2],,,,5,,6,,,,5,,6,,7,,8pp2[95#8:1],,,,2pp4[95#8:1],,,,4pp6pp8[95#4:1],,,,6,,,,2h[2:1],,,,,,,,,,4,,3,,2,,1h[4:1],,,,7h[4:1],,,,5-2[95#16:1],,,,6h[8:1]/4h[8:1],,,,
{8}7-4[95#16:1]/5,6,71,8,1-6[95#16:1]/7,2,13,4,1/3-8[95#16:1],2,35,4,3/5-1[95#16:1],6,57,8,7-3[95#16:1]/5,6,7/1x,8,1<6[95#16:1]/7,2,1/3x,4,13,
{24}3,2,1w5b[95#16:1],8,7,6,5,4,3,21,,,,,1x,,,,,,,
{8}B2/B3/E3/B5/B6/E6/Chf[8:16],,,,,,,,,,,,,,,,8bxpp2pp4pp6pp8<6>4>2<8qq6qq4qq2qq8[95#16:50]b,,,,,,,,7hx[8:4],,,,,,,,8hx[8:4],,,,,,,,1hx[8:4],,,,,,,,4x,,,,4x,,,,2hx[8:4],,,,,,,,Ch[8:8]/B4/B5,,,,,,,,,,,,3b/7b,,,,
{8}3>8[95#16:1]/7,6,5,4,36,5,4,3,4pp6b[95#8:1],7,6pp8b[95#8:1],5,4,,7,,7,6,5,4,37,2,1,8,7,E6/B5/B6/6h[4:1],,2,3h[4:1]/E4/B4/B3,,8,,7<4[95#16:1]/3,2,1,8,72,1,8,7,8pp2[95#8:1]b,,2pp4[95#8:1]b,,4,,3,,1xh[4:1],,
{12}3,2,5,4,7,5,6,5,8,4,7,2,5,3,4,3,1,4,8,5,7,
{8}
6bh[2:1],,4,5,5h[4:1],,7,7h[8:5],,4,5,6,6h[4:1],,8,8h[8:5],,4,5,6,7h[4:1],,1,1h[4:1],,2,3,4,5h[8:1],7h[8:1],1h[8:1],3h[8:1],
4bh[2:1],,6,5,5h[4:1],,3,3h[8:5],,6,5,4,4h[4:1],,2,2h[8:5],,6,5,4,3h[4:1],,1,1h[4:1],,8,7,6,5/4h[8:1],2h[8:1],8-6[95#16:1],1,
{16}2bv5b[95#16:1],,2,1,8,,4,,2,1,8,,
7-1[95#24:1],,65,,5xv2b[95#16:1],,5,6,7,,3,,5,6,7,,
1-3[95#24:1],,87,,7v4b[95#16:1],,7,8,1,,5,,7,8,1,,
2-8[95#24:1],,34,,4xv7b[95#16:1],,4,3,2,,6,,4,3,2,,8,,17,,
2b,4,3,1,5b,7,8,6,2b,5,4,1,5b,8,1,6,2b,4,3,1,5b,7,8,6,2b,5,4,1,5b,8,1,6,2b,6,2b,7,2b,8,2b,1,2b,3,2b,4,2b,5,2bp8[95#16:3],6p4b[95#16:3],2b,,,,,,,,,,,,,,,,D5/D1/E1/E5``B1/B5``Cf``B2/B6``E3/E7/B3/D7/D3/B7,,,,,,,,,,,,,,,,,,,,,,,,,,,,,,,,,,,,,,,,,,,,,,,,,,,,,,,,,,,,,,,,
{8}2h[8:2],3,4,3h[8:2],4,5,4h[8:2],5,6,5h[8:3],6,7,6h[4:1],,7h[8:2],,5h[4:1],6,7,4h[4:1],5,6,3h[4:1],4,5,2h[4:1],3,4,1h[32:15],,8h[32:7],,
{32}D8/D2`E8/E2/E1/B8/B1`C`B6/E6/B3/E4`A6/A3`E5f/D5,
