&title=Supersonic Generation
&artist=Massive New Krew
&first=0
&des=aoihoshi
&clock_count=4
&lv_5=13
&inote_5=(155)
{1},,
{16}
3h[8:3]/5h[8:3],,,,,,,,4h[8:2]/6h[8:2],,,,,,,,
5/7,,,4/6,,,3/5,,2,,5,,4,,7,,
6h[8:3]/4h[8:3],,,,,,,,5h[8:2]/3h[8:2],,,,,,,,
4/2,,,5/3,,,6/4,,7,,4,,5,,2,2,
3h[8:3]/4h[8:3],,,,,,,,4v6[8:1]/6v4[8:1],,,,,,,,
5/2,,,6/3,,,7/4,,6,5,6,5,6,5,6,5,
5h[8:3]/6h[8:3],,,,,,,,3-1[8:1]/5-7[8:1],,,,,,,,
2/8,,7,8,1/7,,2,1,3/8,,7,6,5/1,,3,4,
3/5,,6,5,6,,3,4,3-8[8:1],,8,,7,,6,,
5,,2,1,2,,7,8,7-4[8:1],,1,,3/7,,,,
2/8,,7,8,7,,2,1,2^5[8:1],,5,,6,,7,,
8,,3,4,3,,6,5,6^1[8:1],,5,,4/6,,3,,
2/1,,3,4,2,,1/8,,5/6,,7,8,6,,4,5,
3,,2,1,3,,4/5,,7/8,,6,5,7,,3,4,
2/5,,3/6,,4/7,,5/8,,3/7,,2/6,,1/5,,4/8,,
7V14[8:3]/3V58[8:3],,,,,,,,,,,,3b/7b,,,,
1h[8:1],,4,4,2h[8:1],,1,1,3^6[8:1],,2,,1,,8,,
7h[8:1],,5,5,6h[8:1],,8,8,5-8[8:1],,4,,3h[8:1]/5,,,,
8h[8:1],,5,5,7h[8:1],,8,8,6^3[8:1],,7,,8,,1,,
2h[8:1],,4,4,3h[8:1],,1,1,5-1[8:1],,8-4[8:1],,5,,8,,
1h[8:1],,3,3,2h[8:1],,1,1,3^8[8:1],,4,,5,,6,,
7h[8:1],,5,5,6h[8:1],,8,8,1^6[8:1],,2,,1/3h[8:1],,,,
1/5,,2/6,,3/7,,4/8,,4,8,3,7,2,6,1,5,
8pp3[8:3]/4pp7[8:3],,,,,,,,,,,,1b-3[8:1]/5b-7[8:1],,,,
,,,,4-1[8:1]/8,,,,3/4,,2h[4:1],,,,3^6[8:1],,
,,1,,2^8[8:1],,,,2/3,,4,,1^3[8:1]/5^7[8:1],,,,
,,,,8-5[8:1]/4,,,,7/8,,6h[4:1],,,,7^2[8:1],,
,,5,,6^4[8:1],,,,6/7,,8,,1,,2,,
3h[8:1]/7h[8:1],,,,2h[8:1]/6h[8:1],,,,1/5,,5/1h[4:1],,,,4-8[8:1],,
,,3,,2-6[8:1],,,,7-5[8:1]*-3[8:1],,,,7,,,,
{12}1,4,4,8,4,4,7,4,4,6,4,4,
{32}5b,4,3,2,,,,,6b,5,4,3,,,,,7b,6,5,4,,,,,8b,7,6,5,,,,,
{16}2bqq3[2:1]/6bqq7[8:13],,,,,,,,,,,,,,,,
2h[1:1],,,,,,,,,,,,,,,,
3,,4,,5,,4,,5,,6,,3,4,3,4,
3-5[8:1],,3,,5,,6-3[8:1],,,,3,,2,,2,,
4-6[8:1],,3,,3,,2h[4:1],,,,4,,3,5,4,6,
5^3[8:1],,5,,6,,7h[4:1],,,,4,,2,5,3,6,
4-2[8:1],,4,,6-4[8:1],,6,,3-1[8:1],,3,,5-3[8:1],,5,,
1-5[8:1],,1,,7-1[8:1],,7,,5-3[8:1],,5,,6,,6,,
2/5,,3/6,,4/7,,5/8,,7,4,6,3,5,2,4,1,
3q5[8:3]*V16[8:3],,,,,,,,,,,,4b/8b,,,,
2-5[8:1]/4,,,,1^6[8:1],,,,5-1[8:1],,4,,3,,,,
2^7[8:1],,,,4-7[8:1],,,,8-4[8:1],,1,,2,,,,
7-4[8:1]/5,,,,8^3[8:1],,,,4-8[8:1],,5,,6,,,,
7^2[8:1],,,,5-1[8:1],,,,8-4[8:1],,7,,6,,,,
3/5,,3,,4/6,,6,,2/5,,2,,4/7,,7,,
3/5,,2,,4/6,,7,,2/5,,1,,4/7,,8,8,
4h[8:1],,8,8,5h[8:1],,8,8,6,6,4,4,2,2,8,8,
1pp5[8:3]*qq5[8:3],,,,,,,,,,,,3/7,,,,
4/5,,3,,2/1-5[32:3],,8,,1/5h[256:1],,6h[4:1],,8-4[8:1],1,2,3,
4,,1,,2-5[32:3],,3,,2/5h[256:1],,7,,1,1,1,1,
1,,7,,6/8-4[32:3],,2,,8/4h[256:1],,3h[4:1],,1-5[8:1],8,7,6,
5,,8,,5p4[8:3]/7,,4,,3h[2:1]/5,,,,,,,,
1,2,1,2,8,3,8,3,7,4,7,4,6h[256:1],5h[256:1],6h[256:1],5h[256:1],
7,8,7,8,6,1,6,1,5,2,5,2,4h[256:1],3h[256:1],4h[256:1],3h[256:1],
{32}6,5,4,3,1h[8:1],,,,7,6,5,4,2h[8:1],,,,8,7,6,5,3h[8:1],,,,1,8,7,6,5,4,3,2,
{16}5bV36[8:3]/1bV72[8:3],,,,,,,,,,,,3b/7b,,,,
5/7-2[8:1],,8,,4^1[8:1]/7,,3,,4/5-1[8:1],,6,,5/8,1,2,3,
4-8[8:1],,7-3[8:1],,4^1[8:1],,7,,4,,5,,2h[256:1]/6h[256:1],,2h[256:1]/6h[256:1],,
4-7[8:1]/8,,3,,2-5[8:1]/4,,1,,2/8-4[8:1],,7,,8/5,4,3,2,
1-5[8:1],,6-2[8:1],,1^6[8:1],,6,,1,,4h[8:1],,7,8,1,2,
7/3^8[8:1],,4,,6-3[8:1]/3,,7,,1-5[8:1]/6,,8,,1/4,5,6,7,
8-4[8:1],,2-6[8:1],,8,,2^7[8:1]*^5[8:1],,,,2,,,,4/8,,
3,7,3,7,2,6,2,6,{24}1,5,1,5,1,5,{32}1,8,7,6,5,4,3,2,
{16}1<1[8:3]/5h[4:3],,,,,,,,,,,,1b,,,,
7-1[8:1],,2-4[8:1],,7V58[16:3],,2,,7,,1h[8:1],,7,6,5,4,
2/3-7[8:1],,1-5[8:1],,3,,1^6[8:1],,,,2,,3,,4,,
5/7h[4:1],,1,,3,,4h[4:1]/8,,2,,6h[4:1],,1,,5,,
4^1[4:1]/8,,,,,,6,,6,,1,5,1,6,1,7,
2b/8b,,3b/4b,,1b/2b,,5b^8[32:3]/7b,,,,7h[8:1],,{32}1,2,3,4,1,2,3,4,
{16}5b/1b,,2b/3b,,6b/8b,,3b/4b^1[32:3],,,,2h[8:1],,{32}8,7,6,5,8,7,6,5,
{16}8b,4,6,2,7b,3,5b,1,8,4,6b,2,7,3,5b,1,
{32}8b,7,6,,4b,3,2,,7b,6,5,,3b,2,1,,{24}4,8,4,8,4,8,{32}4-8[16:1],3,2,1,8,7,6,5,
{1}4b,
