&title=三日月ステップ(呆remix)
&artist=r-906 & 初音ミク
&first=0.01
&des=水無月ダンサー(葵fused)
&clock_count=4
&lv_5=13+
&inote_5=(174)
{1},
{16}
,,,,,,,,,,,,E6,B5,B4,E4,
1xh[2:1],,,,,,,,,,8pp7[8:5]/2,,,,4h[8:7],,
,,,,,,,,,,,,B5/E5,,,,
2h[2:1]/6h[2:1],,,,,,,,,,3qq4[8:5]/4,,,,5h[8:3],,
,,,,,,7h[8:3],,,,,,A5/B5,,,,
4h[2:1]/6h[2:1],,,,,,,,,,5/3s7[8:5],,,,4h[8:7],,
,,,,,,,,,,,,B8/E1,,,,
1h[2:1]/7h[2:1],,,,,,,,,,26,,,,3/5h[8:5],,
4x,,,,4x,,,,4x,,36,,4,5,,,
3-1[12:1],,3,,6,,5,,4/1x,,2,,3,,7/4h[4:1],,
,,1,,2/8h[4:1],,,,3,,24,,1h[16:1]/5,,,,
6-8[12:1],,6,,3,,4,,5/8x,,7,,6,,5h[4:1]/2,,
,,1,,7/3h[4:1],,,,1,,48,,6,5,6,5,
7-4[8:1],,7,,2,,1,,4x/8,,5,,6,,3/7h[4:1],,
,,1,,8/2h[4:1],,,,4,,35,,6/4h[16:1],,,,
87,,16,,25,,3,4,3xb,,,5xb/7xb,,,1xbh[8:7]/8xbh[8:7],,
,,,,,,,,,,,,``C/B1/B8,,,,
3,,4,,25,,3,4,3,4,3^5[8:1],,,,7h[4:1],,
,,8,,1/6^8[8:1],,,,5,,5,,4,,,,
6,,5,,47,,6,5,6,5,6-3[8:1],,,,2h[4:1],,
,,4,,6h[4:1]/1,,,,5,,47,,6,5,6,5,
7,,8,,16,,3,4,3,4,3>6<3b[8:5],,,,6,,
,,5,,5,,5,,4,,4,,35,,,,
6,,5,,47,,1,8,2b/7b,,,4xb-8b[16:1]/5xb-1b[16:1],,,4xb>5[8:5]/5xb,,
,,,,,,,,,,,,,,,,
3h[8:1],,4h[8:1],,1h[8:1],,8h[8:1],,5h[8:1],,6h[8:1],,8,,1/6v8-2[4:1],,
,,3,,3h[4:1],,,,1x,,,4x/8x,,,5x/7x,,
6h[8:1],,5h[8:1],,8h[8:1],,1h[8:1],,4h[8:1],,3h[8:1],,1,,8/4qq4pp5[2:1],,
,,7,,7,,,,8,,1x,,1x,,,,
3h[8:1],,4h[8:1],,1h[8:1],,8h[8:1],,5h[8:1],,6h[8:1],,8,,1/7-3[8:1],,
,,3,,4,,5,,46,,7,5,7,,48,,
3,,24,,1,,28,,4xh[16:1],6xh[16:1],3xh[16:1],7xh[16:1],2xh[16:1],8xh[16:1],1xbh[4:1],,
,,5,,26,,37,,(138)6x,5x,6x,,18,,27,,
3b/6b-1[8:1]*v3[8:1],,,,6xV48[16:3],,,,16,,2,,3x-7[8:1],,4,,
3/5^8[8:1],,4,,5/1xv4[8:1]*v6[8:1],,2,,1V35[8:1]*V75[8:1],,,,1x,,,,
8/2-5[8:1],,3,,6x-8[8:1]/2,,8-5[8:1],,6/5-1[8:1],,4,,3x,,2h[4:1],,
,,1,,7/8x<4[8:1]*p4[8:1],,,,8,,,,3x,4x,2x,5x,
1bv4[8:1],,8,,1/7x^2[8:1],,6,,5-1[8:1]/7-4[8:1],,,,7/5x^8[8:1],,,,
1,,2,,3xv1[8:1],,4,,3/7p3[8:1]*-5[8:1],,,,7x,,,,
1-4[8:1],,3,,1x/5,,7,,8-5[8:1],,6,,4/8x,,2,,
5/1h[16:3],,,3,3h[16:3],,,5,5h[4:1],,,,6x,4x,6x,4x,
8v5[8:1]*-6[8:1],,,,8b^3[8:1],,,,8/4-1[8:1],,5,,6/4x-7[8:1],,5,,
8^5[8:1]/4,,1,,2/8x-4[8:1],,3,,8/2-6[8:1],,1-5[8:1],,2x,,1,,
,,7/3h[4:1],,5x,,1,,8-4[8:1],,3^8[8:1],,8x^5[8:1],,3,,
,,3q6b[4:1],,3x,,2,,,,1,,2x,8x,2x,8x,
2-8[8:1],,3,,2x-4[8:1]/5-1[8:1],,6,,5/2-6[8:1],,,,2x/1,,8,,
7/5^8[8:1],,4,,3/5x,,2,,1-5[8:1],,6^1[8:1],,1x^4[8:1],,6,,
,,5,,4/6x,,7,,1/8>6[4:1],,5,,6x,,7,,
(174)8x,,,,8x,,,,8,,4xh[16:1],6xh[16:1],3xh[16:1],7xh[16:1],2xh[16:1],8xh[16:1],
1b,,3,4,3,,71,,3,4,3,,78,,3,4,
3^8[8:1],,8^5[8:1],,6,,4-8[8:1],,,,34,,2,,1,,
28,,6,5,7h[8:1],,5,6,4-1[8:1],,7^4[8:1],,4,,7,,
,,51,,26,,37,,8,7,6,5,8,1,2,3,
8b,,6,5,6,,28,,6,5,6,,21,,6,5,
6^1[8:1],,1^4[8:1],,3,,5-1[8:1],,,,56,,7,,8,,
71,,3,4,2h[8:1],,4,3,5-8[8:1],,1,,25,,3,,
8,4,8,4,8,4,8,4,{32}7x,6,5,4,3,2,1,8,7,6,5,4,3,2,1,8,
{16}3bv8[8:1]/7b-4[8:1],,,,37``Cf,,,,15,,3,4,2,,12,,
48,,6,5,7,,78,,1-5[8:1],,6^1[8:1],,1^4[8:1],,6,,
,,5x,,5,,46,,7-3b[8:1],,2<4[4:1],,7,,2,,
,,8,,8,,17,,1,2,3,4,1,8,7,6,
1b,,3,4,2,,87,,3,4,2,,86,,3,4,
2-6[8:1],,1,,25,,7,,8^5[8:1],2,1^4[8:1],,8,,1,,
,,37,,3h[8:1]/7h[8:1],,,,6x,5x,7x,,48,,2h[4:1]/6,,
,,E5/B4,,,,B8/E1,,,,E7,C,E3,,,,
3h[8:1]/4h[4:1],,,,3,,3,4,3,,2^4[8:1]/5^8[8:1],,,,2/5,,
,,5,,4/6h[4:1],,,,1,,28,,3h[16:1]/7,,,,
6h[8:1]/5h[4:1],,,,6,,6,5,6,,7^5[8:1]/4^1[8:1],,,,7/4,,
,,8,,1/7h[4:1],,,,2,,31,,48,,6,5,
6,,65,,65,,6,5,7,,8^5[8:1]/4v1[8:1],,,,8/4,,
,,4,,5/3h[4:1],,,,1,,84,,7h[16:1]/5,,,,
3h[8:1]/4h[4:1],,,,3,,3,4,2,,1^4[8:1]/5v8[8:1],,,,1/5,,
,,6x,5,4,,4,,2-6[8:1],,71,,62,,,,
8xbh[2:1],,,,2h[4:1],,,,,,8pp1-7[8:5]/2,,,,4,,
,,5,,5,,,,4,,4,,,,,,
6h[2:1],,2,,2h[4:1],,,,,,3-8V25[4:3]/4,,,,5,,
,,6,,6h[8:1],,,,7,,7,,,,A8,,
4xh[2:1],,6,,6h[4:1],,,,,,5/3^4q5^6[4:3],,,,6,,
,,8,,8,,,,1,,1h[8:3],,,,,,
3,,4,,52,,6,5,7b,,,4b/2b,,,1xbh[8:33]/8xb>8p4b[8:31]```B8f```C```B4,
