&title=新しい世界へ
&artist=KyogoArimura feat. July_Tilia
&first=0
&des=KuSA
&lv_5=13+
&inote_5=(124)
{1},
{8}
7<8[8:5]/8>7[8:5],,,,,,,,1h[8:3],,,2,,,5,4,3,4,5,6>3[4:1],,7,7,,
6,5,4-8[4:1],3,2,,1,2,
7h[8:3]/3q5[8:4],,,,,,8,7,5/6<3[8:4],,,,2,,4,,6,5,4,3<6[4:1],,2,2,,
3,4,5w1[16:5],6,5,,,,3h[8:3]/7h[8:3],,,,3/7,2,4,5,7>2[4:1],,2>5[4:1],,
5<8[4:1],,8>3[4:1],,3qq5[4:2],,,,,,,45,3qq4[4:2]/7qq8[2:1],,,,,,,
{32},,48,3/7-4[12:1],{16}2/6h[16:3],,,7,,,1<5[8:1],,,3,1,,8,,2,,
3h[8:1]/4h[8:1],,,5h[8:1]/6h[8:1],,,1/8,,3-8[12:1]/7-4[12:1],,,,7/3,,
,{32}15,2-5[12:1]/6,{16}3h[16:3]/7,,,2,,,8>4[8:1],,,6,8,,1,,7,,
6h[8:1]/5h[8:1],,,2h[8:1]/4h[8:1],,,1/7,,2z6[8:1]/6z2[8:1],,15,,,,,,
1>4[12:1]/8,,,1/5V31[8:1],,,7,,,6,6,,7/8-4[12:1],,2,,4<7[12:1],,,1>4[12:1],,,1,,
8-6[12:1]*-4[12:1],,,,8,,,,4/5<8[12:1],,,5/1V75[8:1],,,3,,,2,2,,3/4-8[12:1],,
6,,8b,,,1/7,,,5/6,,2-5[10:1]/4-8[10:1],,,,
2/4>5[4:3],,,,4b/5bp4[4:2],,,,,,,,,,,,,,,
{32}6,5,{8}6h[8:3],,,7h[8:3],,,8qq5[8:5],{32},,4,3,
{8}2q5[8:3],,,,,,3/4,,2/5h[8:3],,,4h[8:3],,,3,{32},,
3,4,{8}3h[8:3],,,2>5[16:3],1,,,{32},,6,5,{8}6h[8:3],,,7p3[16:3],8,,{32},,,,,,
3,4,{8}3h[8:3],,,2>5[16:3],1v6[16:3],,,,{16}1h[8:1],,,2h[8:1]/8h[8:1],,,
3,3,4,,6,6,5,,8,1,2b/7b,,,,5-1[8:1],,5,,4h[4:1],,,,8-3[8:1],,8,,3>6[4:1],,,
5,,,5,,4-8[10:1],,3-1[10:1],,4,,3,,6h[4:1],,,,7-3[8:1],,7,,8h[4:1],,,,
1v6[8:1],,1,,6<3[4:1],,,4,,,4,,5-1[10:1],,7-4[10:1],,5,,7,,2h[4:1],,,,
4qq4[4:1],,4,,4pp4[4:1],,,,,,1,,1h[16:3],,,3h[16:3],,,4,,56,,7,,2/8,,3,,
6h[4:1]/4p8[8:1],,,,4,,5,,4q8[8:1]/1h[4:1],,,,4,,2,,3>8[8:1]/7<4[8:1],,,,
3v6[8:1]/7v2[8:1],,,,3/7>6[16:5],,,,,,,,
{8}
,3,3h[4:1],,4,4-2[6:1],,5,5h[4:1],,4,4-6[6:1],,3,3h[4:1],,5,5-3[6:1],,
6,6h[4:1],,5,5pp7[6:1],,4,4v3[16:3],,8,8v7[6:1],,3,3v2[6:1],,7,7v6[6:1],,2,
2v1[6:1],,6,6v5[6:1],,1pp3[4:1]*qq7[4:1],1,,,,
{16}
3h[8:1]/4h[8:1],,,,3,,3h[8:1]/4h[8:1],,,4,3,6,
5h[8:1]/7h[8:1],,,,7,,4h[8:1]/6h[8:1],,,4,5,2,
1h[8:1]/4h[8:1],,,,1,,2h[8:1]/5h[8:1],,,5,3,7,
4h[8:1]/8h[8:1],,,,8,,3/7h[8:1],,5,6,3,4,2/5,,3,,3,,
4/7,,6,5,7,4-1[10:1],8h[8:5],,,,,,2h[4:1],,,,,,
7h[16:1],3,7h[16:1],3,6h[16:1],2,5h[16:1],1,4h[16:1],8,3h[16:1],
7>3[16:5],3b<7[8:2],,,,,,,,,,{24}4,3,2,{16}1b>4[10:1]/6b,,7,8,16,,
7>2[10:1],,5,6,7/4,,3qq4[8:2],,{24}8,7,6,{16}3/5,,5<8[10:1],,6,,2/5,,
4>8[8:1],,1,1,4,,7p2[8:1],,2q7[8:1],2,7,,8b,,1,,5,4,7-4[10:1]/2,,,,73,,
1V35[10:1],,3,3,1,,8V64[10:1],,6,6,8,,1,,3/4-8[10:1],2/5,,
6,4/7h[4:1],,,,1,2-6[12:1]/6,35,,4,2,5h[4:1],,7,,1,,26,3/7-3[10:1],48,,
2,7,,8,8b>4[8:1],,,,{24}5,6,7,
{16}8b<5[10:1],,2,1,83,,
2<7[10:1],,4,3,2/5,,6pp5[8:2],,{24}1,2,3,{16}6/4qq4[16:3],,5,,4,,
7,,5V71[8:1],,1,1,5,,2V46[8:1],,6pp3[4:1],6,2,,1b,,,,
8,7,2-5[10:1]/6h[4:1],,1,,2,,
8<5[12:1],,6,6,8,,1>4[12:1],,3,3,1,,8,,6/5-1[10:1],7/4,,
3,5/2h[4:1],,,,8,7-3[12:1]/3,64,,5,7,4h[4:1],,2,,8,,73,6/2-6[10:1],51,,
7,2,,1,1b-4[10:1],,7b-4[10:1]/4b-8[10:1],,1b,,7b,,,
{32}2,3,4,5,6,7,8,1,2,3,4,5,6,7,8,1,2,3,4,5,6,7,8,1,2,3,4,5,6,7,8b,
17,26,35,{8}4w8[10:1],,4bpp7[8:3]*qq1[8:3],,,,,,
{16}2,4,3,4,1,,7,5,6<4[6:1],5,8,,6b,,{32},,
7,8,1,2,3,4,5,6,7,8,1,2,3,4,5,6,7,8,1,2,3,4,5,6,7,8,1,2,3,4,5b,
64,37,82,1-5[8:1],,,,,,,,{8}1bqq2[8:3]/5bqq6[8:3],,,,,,
{16}7,5,6,5,8,,2,4,3q7[10:1],4,1,,8<4[8:1],,2,2,,,1,,3/4p8[10:1],,5/6,,
7>3[8:1],,5,5,,,6,,7/4q8[10:1],,5/2,,1<5[8:1],,3,3,,,2,,4/6p2[10:1],,5/8,,
1>4[8:1],,7,7,,,8,,5<2[16:3]/6,,3/4,,2V86[6:1],,3,3,,,5,,
4/3<7[16:3],,2/1,,7V52[6:1],,8,8,,,1,,7>3[6:1]/8,,56,,
3bqq8[8:3]*pp7[8:3],,,,,,,,,,,,1h[8:1]/5,,4,3h[8:1],,7,
4>1[12:1]/8<5[12:1],,2/6,,{8}8bq2[8:10]/4bq6[8:10],,,,,,,,,,,,,
6p4[8:10],,,,,,,,,,,1-5[8:1],,
