&title=air's fragrance
&artist=zts
&first=0
&des=Jack2310 & 玉子豆腐
&lv_6=14.1
&des_6=Jack2310 & 玉子豆腐
&inote_6=
(137){4},{1},,{4},,,{8}6pp1[4:1],
5,{4}4,{8}5>2[8:1],6,,5<8[8:1],
{4}4,{8}5p1[8:1],6,,5q1[8:1],{4}4,
{8}3qq8[4:1],4,{4}5,{8}4<7[8:1],3,,4>1[8:1],
6,5,4q8[8:1],2,3,4p8[8:1],,,6pp1[4:1],
5,{4}4,{8}5>2[8:1],6,,5<8[8:1],
{4}4,{8}5p1[8:1],6,,5q1[8:1],{4}4,
{8}3qq8[4:1],4,{4}5,{8}4<7[8:1],2,,4>1[8:1],
{4}6,{8}5-7[8:1],5-3[8:1],5-8[8:1],5-2[8:1],5-1[1:1],5,
{1}5,
{8},,,,,,,,2-4[8:1],
1-5[8:1],2<5[4:1],1,{2}2,
{8}7-5[8:1],8-4[8:1],7>4[4:1],8,{2}7,
{8}2-4[8:1],1-5[8:1],2<5[4:1],1,{4}2,{8}7-4[8:1],8-2[8:1],
7-3[8:1],8-4[8:1],7-5[8:1],8>4[4:1],7,8,,,8-4[8:1],
2-4[8:1],8<4[16:3],2,{2}8,
{8}1-5[8:1],7-5[8:1],1>5[16:3],7,{2}1,
{8}8-4[8:1],2-4[8:1],8<4[16:3],2,{4}8,{8}2-5[8:1],1-7[8:1],
2-6[8:1],1-5[8:1],2-4[8:1],1-6[8:1],2-5[8:1],1-7[8:1],2,1,
{4}2b<7[8:1],2,4p8[4:1],8p4[4:1],
{2}4-2[8:1]*-7[8:1],{8}1-4[8:1],6-2[8:1],1-5[8:1],6,
{4}1,3<6[8:1],3/1q5[4:1],5q1[4:1],
1-6[8:1],4-2[8:1],4-6[8:1]/7-3[8:1],4/7,
1-7[8:1],3/1-5[8:1]*-6[8:1],1-3[8:1],7/1-4[8:1]*-5[8:1],
1-7[8:1],3/1<5[8:1]*>5[8:1],1,3/7,
8-5[8:1]*-6[8:1],8-4[8:1],7/8-2[8:1]*-3[8:1],8-4[8:1],
1/8-5[8:1]*-6[8:1],8w4[8:1],8,{16}1/5,2/6,3/7,4/8,
{8}5/1-3[8:1],3,5/1-6[8:1],7,5/1-4[8:1],3,5/1-7[8:1],7,
5/1-3[8:1],3,5/1-5[8:1],7,{4}1/5,{16}5,6,7,8,
{8}5/1-3[8:1],3,5/1-6[8:1],7,5/1-4[8:1],3,5/1-7[8:1],7,
5/1-5[8:1],3,1/5,7,{2}3>8[8:1]/7<4[8:1],
{8}4/8-6[8:1],6,4/8-3[8:1],2,4/8-5[8:1],6,4/8-2[8:1],2,
4/8-6[8:1],6,4/8-4[8:1],2,{4}4/8,{16}4,3,2,1,
{8}4/8-6[8:1],6,4/8-3[8:1],2,4/8-5[8:1],6,4/8-2[8:1],2,
4/8,6,{16}3/7,8,1,2,3h/7h,4h/8h,1h/5h,2h/6h,3h/7-3[8:1],4h/8h,1h/5h,2h/6h,
{4}3h/7h,8b,{8}2/8-3[8:1],1,6/8,7,
{16}4/8q4[8:1],3/7,2/6,1/5,{4}4/8,{8}7/1-6[8:1],8,1/3,2,
{16}5/1p5[8:1],2/6,3/7,4/8,{4}1/5,{8}2/8-3[8:1],1,6/8,7,
{16}4/8q4[8:1],3/7,2/6,1/5,{4}4/8,{16}7,8,5,1,6,2,7,3,
4q8[8:1]/8q4[8:1],3/7,2/6,1/5,{4}4/8,{16}2,1,4,8,3,7,2,6,
1p5[8:1]/5p1[8:1],2/6,3/7,4/8,{4}1/5,{16}3,6,4,5,2,7,4,8,
3,7,2,6,1,5,8,4,3/7>6[16:7],4/8>7[16:7],5/1>8[16:7],6/2>1[16:7],{4}7/3<2[16:7],
{16}7,8,1,2,3,4,5,6,{2}3h[2:1]/7h[4:1],
{1}7b,
E
