&title=Enmusubi
&artist=NICODE feat. Narae
&first=0.1
&des=お幸せに。
&lv_5=13+
&inote_5=(132)
{1},
{32}
4xq5b[4:6],3x,2x,,{16},,,,,,,,,,,,,,
7h[1:1],,,,,,,,,,,,,,,,
E7,,E6,,E5,,E4,,E3,,E2,,E1,,E8,,
E7,,,,,,,,,,,,,,,,
{32}5xp4b[4:6],6x,7x,,{16},,,,,,,,,,,,,,
2h[1:1],,,,,,,,,,,,,,,,
4-8[2:1],,,,,,,,,,,,,,,,
2z6b[8:3]/7s3b[8:3],,,,,,,,,,,,C,,,,
2,,2h[8:3],,3,,4,,5^3[8:1],,6,,7,,,,
7,,7h[8:3],,6,,5,,4^6[8:1],,3,,2,,,,
1^4[16:3],,1,,8,,7,,6^1[16:3],,6,,5,,4,,
3,,E7,E6,,E3,E4,,1h[4:1]/8h[4:1],,,,,,,,
3,,3h[8:3],,2,,1,,8^3[16:3],,7,,6,,,,
6,,6h[8:3],,7,,8,,1^6[16:3],,2,,3,,,,
4-1[8:1]/5,,,,48,,7-3[8:1],,,,37,,,,1,,
2s6b[8:3]/8z4b[8:3],,,,,,,,,,,,,,,,
4x^1[16:3],,4,,6,,5,,4x^7[16:3],,4,,1,,2,,
3x^8[16:3],,3,,5,,4,,3x-7[8:1],,,,35,,,,
5x^8[16:3],,5,,3,,4,,5x^2[16:3],,5,,8,,7,,
6x^1[16:3],,6,,4pp4b[8:3]*qq4b[8:3],,4,,,,,,,,,,
1x^4[16:3],,1,,7,,8,,1x^6[16:3],,1,,4,,3,,
2x^5[16:3],,2,,8,,1,,2x-6[8:1],,,,28,,,,
5x^8[16:3],,5,,2,,3,,4x^1[16:3],,4,,8,,7,,
6h[8:1],,5h[8:1],,4h[8:1],,3,,18,,4,5,4,,27,,
3-8[8:1],,46,,35,,4,,1,5,2,4,3,,56,,
7-4[8:1],,48,,37,,2,,1,4,2,5,3,6,4,7,
5-1[8:1],,6,,57,,8,,7,3,6,4,5,,12,,
8-4[8:1],,57,,48,,3,,2,6,5,6,1,5,4,5,
2-5[8:1],,3,4,2,,8,8h[16:3],,{24}E6,E5,E4,{16},7,7,1,1,
6-1[8:1],,5,1,6,,3,3h[16:3],,,1,3,8,2,7,1,
6,6,5,5,4,4,3,3,{24}7,6,5,2,3,4,8,7,6,1,2,3,
{16}4x/8x,4x/8x,,35,35,,27,,{12}1xs5b[8:1]/8xz4b[8:1],2x/7x,3x/6x,A1/E1f/A8,,,
{16}18,,2,4,3,5,4,6,5-2[8:1],,,1,,,7,,
81,,7,5,6,4,5,3,4x,4,2x,2,6x,6,4x,4,
8,,5,6,,47,,56,,47,,5,6,,47,,
18,,3,4,,25,,34,2x,2,4x,4,5x,5,7x,7,
1h[8:1],,4,2,5,3,6,4,7-3[8:1],,,3,,,1,,
1/8h[8:1],,5,7,4,6,3,5,2x,2,1x,1,8x,8,7x,7,
5,,3,4,,25,,18,,27,,6,5,,47,,1x,1,3x,3,5x,5,7x,7,{12}1xw5[8:1],2x/8x,3x/7x,{16}A1f/E1/E2,,,,
2x-5q3[4:3],,,,5,,,,6,,,,7,,,,
8^5[4:1],,,,5,,,,1^4[4:1],,,,4,,,,
8p4pp6[4:3],,,,4,,,,3,,,,2,,,,
1,,B3,B6,B4,B5,E5,,2-8[8:1]/7-1[8:1],,,,27,,,,
1^4qq6[4:3],,1,,,,5,,,,6,,,,7,,
8^5pp1[4:3],,8,,,,1,,,,2,,,,3,,
4^1[8:1],,,,47,,6-2[8:1],,,,16,,,,8,,
17,,2,5,3,6,4,7,5-1[8:1],,,,5/8qq4[2:1],,,,
4,,3,,2,,1,,8h[4:1],,,,4qq8[2:1],,,,
8,,7,,6,,5,,4h[4:1],,,,1,,,,
2^5[4:1],,2,,1,,8,,7^4[4:1],,7,,8,,1,,
2qq5[2:1],,3,,4,,5,,6,,,,8h[4:1],,,,
7,,6,,5qq8[8:3],,4,,3,,,,1h[4:1],,,,
2,,3,,4pp1[8:3],,5,,6,,,,8h[4:1],,,,
3h[4:1],,,,7,,1/6h[4:1],,,,5,,48,,,,
2p2b[2:1]/6q6b[2:1],,,,,,,,,,,,,,,,
5^8[16:3],,,,3,,,,5^2[16:3],,,,8,,,,
6^1[16:3],,,,4,,,,6-2[8:1],,,,64,,,,
4^1[16:3],,,,6,,,,4^7[16:3],,,,1,,,,
3^8[16:3],,,,5qq5b[8:3]*pp5b[8:3],,,,,,,,,,,,
2^7[8:1],,,,6^3[8:1],,,,2-6[8:1],,,,6,,,,
7,7h[8:1],,5,5h[8:1],,4,4h[8:1],,2,2h[8:1],,7,,18,,
3,6,4,5,2,7,4,5,1,8,3,6,1,8,2,7,
{32}3,4,5,6,7,8,1,2,3,4,5,6,7,8,1,2,{16}3/7,,6,4,5,,1,8,
27,,56,,3,4,2,5,1-5[8:1],,26,,1-3[8:1]/7,,8,8,
1-5[8:1],,6,6,1,,7,,6,5,,47,,,3,4,
2,2,{32}E7,E6,E5,,{16}1,1,8,8,,34,,56,47,,18,,
24,2-6[8:1]/4,,18,,26,,8,8-4[8:1]*^5[8:1],,12,,8,,,,
26,,17,,{24}2,3,4,8,7,6,{16}15,15,,37,,6,5,,
18,,2,4,3,5,4,6,5-1[8:1],5,,8,,,6,,
{24}7,6,5,1,2,3,{16}8,8,1,1,,7,4,5,3p2b[1:1],6q7b[16:15],2,
