&title=Sparking Revolver
&artist=xi
&first=0
&des=Yuzukeai
&lv_5=14+
&lv_6=15
&inote_1=
&inote_5=(357)
{32},,,,,,,,,,,,,,
{24}1,,,8,,,,,,1,,,8,,,,,,1,,,8,,,
{12}2,3,4,7,6,5,2,3,4,7,6,5,{8}
1,8,1,7,1,6,1,5,2,8,2,7,2,6,2,5,3,8,3,7,3,6,3,5,4,8,4,7,4,6,4,5,
1bq5[6:5],,,,{6}5,6,7,8>3[6:5],,,5b,6b,7b,8bz4[1:1],,,,,,,
{16},,,,,3,2,1,8,7,6,5,4,
(178.5){8}7V16[8:3]/3,,3/7,,{16}2,,,4,,,{16}7h[16:4]/5,,,,4,,4,5,3,4,1-5[8:1],,8,,1,,6,6,,,4,3,2,8,7,6-1[8:1],45,,,63,,,2h[4:1],,,,7h[8:1],,6h[8:1],,5h[8:1],,
1,1,8,8,3,6,3,5-1[8:1],,,,,2,,,3,,,5,,6,,7,,48,,2,,7,,4,,2h[8:1],,5,,7h[8:1],,3,,2-4[12:1]/6,,2,,,8,,,1/7-5[12:1],,7,,,1,,,2-6[8:1]/8-4[8:1],,28,,,,,,1-4[8:1],,1,,7b,,,,
7>6[1:1]/8h[4:1],,,,,,,,,,,,,,,,2<3[1:1],,,,,,,,,,,,,,8z4[2:1],,,,,,,,,,,,,,3,,3,,3>7[2:1],,,,,,,,7<3[16:7],,,,,,,,8qq4[4:3],,,,,,,,,,,,3,,,,3h[4:1],,,,,,2-5[8:1]/5-1[8:1],6,7,,25,,,,3/7z3[8:3],,,,,,,,,,2h[8:1],,,,8,7,6,5,4h[16:3],,,8h[16:3],,,1h[16:3],,,2,,34,
,6,7,8,12,,,,6,5,6h[4:1],,,,2,,4,3,,,5h[4:1],,,,3,,,,4h[4:1]/6,,,,7,6,5,,2/5h[4:1],,,,3,,4h[4:1]/7,,,,6,,1/5h[8:1],,2,,37,,3,,24,,2,,68,,6-2[8:1],,3,,3,,4qq4[2:1]*<8[4:1],,,,,,,,,,,,,,,,7h[4:1],,,,,,86,,{24}1v6[8:1],2,3,4,,,,,,,,,
{16}2,,8,,3,4,3,,7,,3,3,6,5,6,,28,,,,2,8,2,8,3,1,3,1,4-1[8:1],2,4,2,
4b,,8,,3-8[8:1],,4-7[8:1],,3,,4,,2h[32:1],,6h[4:1],,,,5,,7-4[8:1],3,8-3[8:1],4,7,,8,,6,6,2,2,
7-3[8:1],,1,,7,,2-5[8:1],,4-8[8:1],,2,,4,,1b,,,,3,,6,2,6,2,8-6[12:1]/4,,8/4-2[12:1],,,,,,
7b,,1,,7/8-3[8:1],,8/7-4[8:1],,8,,7,,2h[32:1],,6h[4:1],,,,1,,6,7,2,3,48,,7,6,3,2,1,8,7-4[8:1]/5-1[8:1],,,,75,,,,8,7,6,5,4,,2b/1b,,5,4,6,3,5,4,7,2,6,3,8,1,5,4,6,3h[16:3],,,7,,6,5,6,,27,,27,,3,4,3,,25,,8,1,7,2,6h[8:1],,,,1,8,3,6,1b-4[4:1],,,,5,,5,,5,,5,,15,,15,,15,,1b/5,,2b/6,,3b/7,,4b/8,,8,2,6,4,{12}7,7,3,
{16}3,,6,2,,5,4,5,4,,{24}7,6,5,2,3,4,8,7,6,
{12}1,1,1,5,5,5,4,4,5,{32}5bz1[1:1],4s8[32:31],,,{8}6h[64:1],,,,,,,,,,,,,,,,,
3z7[1:1]/6s2[1:1],,,,,,,,,,,,,,,,{16}5b<8[1:1],4>1[16:15],5,,,,,,,,,,,,,,,,,,,,,,,,,,,,,,4,5,4,,,,6,,2,,,4,{12},8,7,{16}6h[4:1],,,,
2,5,2,5,(133.875)3,,8-4[12:1],1,,7>2[4:1],8,,,,,,,,3,4,,6,5h[16:3],,,6-2[114513:14315],,1z5[2:1],,,3,,,
(357)3h[2:1],,,,,,,,,,,,,,{32},{16}2,,,,1,,,,8,,,,73,,,,26,,,,
(178.5)15,,2,3,4,65,7,8,12,,8,7,6,54,3,2,18,,56,,71,,34,,18,,54,,18,,54,,23,,76,,23,,76,,1,1,7,7,5,5,6,6,2,1,,1,2,,34,,7,8,,8,7,,56,,1,8,,8,3,,65,,8,1,,1,6,,34,,8,7,6,1,8,7,2,1,8,3,2,1,48,,15,,1,2,3,84,1,2,37,8,1,26,7,8,5qq7[4:3]/1qq3[4:3],,73,,1b/5b,,,,,,,,,,,,,,,,
1,5,,37,,26,,,1,5,{24}2,3,4,{32}6,7,8,1,2,3,4,5,
{16}1b-5[8:1],,2-4[8:1],,1,,2,,8-4[8:1],,7-5[8:1],,8,,7,,2v7[8:1],,6v3[8:1],,2,,6,,8,1,2,3,7,8,3,4,1-6[8:1],,2-5[8:1],,1,,2,,7-4[8:1],,8-3[8:1],,7,,8,,6h[16:1],,6h[16:1],,6h[16:1]/8,,6h[16:1]/1,,26,3,46,7,83,4,56,7,5b-1[8:1],,8-6[8:1],,5,,8,,2-6[8:1],,7-1[8:1],,2,,7,,2,,6,5,6,,7,,3,4,3,4,2,5,2,5,1,,87,,6,,54,,3,,28,,4-1[8:1]/5-8[8:1],,72,36,45,,,,2,3,4,5,6b/7b-4[8:1],,7b,,,,,,
3h[1:1],,,,,,,,,,,,,,,,7h[8:7],,,,,,,,,,,,,,1h[2:1],,,,,,,,5pp5[2:1],,,,,,,,2,3,
4h[2:1],,,,,,6,7,8h[16:3],,,1h[16:2],,{32}7,,,3,,,
{16}5<8[16:3],,,,1,2,3,4,5>2[8:1],,1qq6[2:1],,5,,1,,,,,,3,,5-2[8:1]*-8[8:1],,,,
5pp5[2:1],,,,,,,,,,4,3,2,1,8h[8:1],,6h[8:1],,2h[8:1],,4,,4h[8:1]/5,,,4h[8:1]/2,,,4h[8:1]/6,,,84,,1,7,6,5,4,31,,,,2,2,2,,6,5,7,,7,8,6,,15,,28,,2,3,4,5,3,4,5,6,{16}3<6[8:1],2,1h[8:1],,3,,,,1,7,1,7,2,6,2,6,3,5,3,5,4h[4:1],,,,
7,6,5,4,8,7,6,5,1,8,7,6,51,,2,6,2,6,2s6[4:1],6,3,,,,,,,,7h[4:1],,,,,,{24}47,36,25,1/4z8[4:1],,,1,,,,,,,,,
{16}2,,35,,6,6,5,,8,,73,,5,5,1,,5,6,7,8,{24}3,4,3,4,,,{16}18,,3,4,3,6,5,6,
5b,,47,,6-1[8:1]/3,,5-2[8:1]/8,,6,,5,,7h[32:1],,3h[4:1],,,,4,,2-5[8:1],6,1-6[8:1],5,2,,1,,3,3,7,7,
2v5[8:1],,8,,2,,7<4[8:1],,8>3[8:1],,7V51[4:1],,8,,7b,,,,4h[4:1],,8,7,6,5,4^7[8:1]/2,,3bv8[8:1],,,,,,
5b,,26,,4/8-3[8:1],,3/7-4[8:1],,8,,7,,2h[32:1],,6h[4:1],,,,1,,6,7,2,3,48,,7b,5,6,2b,1,3,8b-4[8:1],,7,,8/1-5[8:1],,2,,17,,6,,28,,4b,,5,4,6,3,5,4,7,2,6,3,8,1,5,4,6,3,2b/7b
,,5,4,5,4,5,4,7-3[8:1],1,6,2,7,,1b>4[8:1],,,,15,6,7,8,1,2,{32}3b,2,1,8,7,6,5,4,{16}37,,2,5,1,8,7,6,5,4,3,2,{24}8,7,6,2,3,4,7,6,5,1,2,3,7,6,5,4/8b,1,2,3h[4:1],,,2,1,8,7b,,,{16}78,7b/8b,,45,4b/5b,,2b/1b,,3,7,1,6,2,8,{24}3,4,5,7,8,1,2,3,4,5/1b,,,{16},,
2,6,4,7,3,5,1b,,1b,,,{32}2b/8b,37,64,5,,,{16}1,8,1,8,2,7,2,7,{32}3-7[8:1]/6,5,4,3,2,1,8,7,63,,,,5h[4:1],,,,,,,,{16}4,3,{32}2/5-1[8:1],,,,6,,7,,8/5b,,,,,,,,{24}3,4,5,6,7,8,,,,{32}6b/2,,,,7-3[8:1],,3,,7,,3,,7b,,,,2b,,,,1-5[8:1],,4,,1,,4,,1b,,,,4bw8[8:1],,,,,,,,4b,,,,,,,,{24}2,3,4,56,7,8,1b-5[4:1],,,,,,4,,,4,,,4,,,4,,,4/8b,,,4/8b,,,4/8b
,,,{32}7b,6,5,4,3,2,1,8,4,,4,,6,,6,,2,3,4,5,6,7,8,1,2b/6b,,2b/6b,,2b/6b,,2b/6b,,,,,,1b/5b,26,73,(357){16}84,,,,,,,,,,,,,,,,,{12}7,5,4,2b
,
&inote_6=(357)
{7},,,
{24}3b,,,5,,,,,,5,,,3,,,,,,2,,,6,,,
{12}2b,3,4,8b,7,6,1b,2,3,7b,6,5,{8}
1b,8,1,7,1,6,1,5,2b,8,2,7,2,6,2,5,3b,8,3,7,3,6,3,5,4b,8,4,7,4,6,4,5,
1bq5[6:5],,,,{6}5,6,7,8>3[6:5],,,5b,6b,7b,8bz4[1:1],,,,,,,
{16},,,,,3b,2,1,8,7,6,5,4,
(178.5){8}7V16[8:3]/3,,3/7,,{16}2,,,4,,,{16}7h[16:4]/5,,,,4,,4,5,3,4,1-5[8:1],,8,,1,,6,6,,,4,3,2,8,7,6-1[8:1],4b/5b,,,6b,,,3h[4:1],,,,7h[8:1],,6h[8:1],,5h[8:1],,
1,1,8,8,3,6,4,5b-1[8:1],,,,,2,,,3,,,5,,6,,7,,48,,2,,7,,4,,28,,5,,17,,35,,2b-4[12:1]/6,,2b,,,8b,,,1/7b-5[12:1],,7b,,,1b,,,2b-6[8:1]`8b-4[8:1],,2b/8b,,,,,,1-4[8:1]/8h[8:1],,,,7b,,,,
7>6[1:1]/2h[4:1],,,,,,,,,,,,4,,,,2<3[1:1],,,,,,,,,,,,,,8z4[2:1],,,,,,,,,,,,,,3,,,,3V17[2:1],,,,,,,,7-3[16:5],,,,,,,,8qq4[4:3],,,,,,,,,,,,3,,,,3h[4:1],,,,,,2b-5[8:1]/5b-1[8:1],6,7,,2b/5b,,,,3b/7bz3[8:3],,,,,,,,,,2h[8:1],,,,6h[16:1],5h[16:1],6h[16:1],5h[16:1],7h[16:3],,,8h[16:3],,,1h[16:3],,,2,,8,
3h[16:1],4h[16:1],3h[16:1],4h[16:1],3h[4:1],,,,6,5,6h[4:1],,,,2,,4,3,,,5h[4:1],,,,3,,,,4h[4:1]/6,,,,7,6,5,,2b/5,,,,3,,4/7b,,,,6,,15,,2,,3/7b,,3,,2/4b,,2,,6/8b,,6-2[8:1],,3,,3,,4bw8[2:1],,,,,,,,,,,,,,,,6h[4:1],,,,,,7b/5b,,{24}1bv6[8:1],2b,3b,4b,,,,,,,,,
{16}2b,,8b,,3,4,3,,7b,,3b,3,6,5,6,,18,,,,2,1,2,1,3,4,1,8,5,6,4,7,
3b/4,,23,,3-8[8:1]/4,,4-7[8:1]/5,,,,,,2,,6h[4:1],,,,5,,7-4[8:1],3,8-3[8:1],4,7,,8,,6,6,2,2,
7-3[8:1],,1,,7,,2-5[8:1],,4-8[8:1],,2,,4,,1b,,,,3,,6,2,6,2,8-6[8:1]/4,,8/4-2[8:1],,,,,,
7b,,81,,7/8-3[8:1],,6/7-4[8:1],,,,,,2,,6h[4:1],,,,1,,6,7,2,3,48,,7,6,3,2,1,8,7b-4[8:1]/5b-1[8:1],,,,7b/5b,,,,8,7,6,5,4,,2b/1b,,5,4,6,3,5,4,7,2,6,3,8,1,5,4,6,3,,,7b/4b,,6,5,6,,2b/7b,,2b/7b,,3,4,3,,2b/5b,,8,1,7,2,6h[8:1],,,,1,8,3,6,1b-4[4:1],,,,5,,5,,5,,5,,1b/5,,1b/5,,1b/5,,1b/5,,2b/6,,3b/7,,4b/8,,4,6,2,8,{12}3,3,7,
{16}7,,2,6,,4,5,4,5,,{24}2,3,4,7,6,5,1,2,3,
{12}8,8,8,4,4,4,5,5,4,{32}4bs8[1:1],4z8[32:31],,,{8}3,,,,,,,,,,,,,,,,,
3bz7[1:1]/6bs2[1:1],,,,,,,,,,,,,,,,{16}5b<8[1:1],4>1[16:15],5,,,,,,,,,,,,,,,,,,,,,,,,,,,,,,4,5,4,,,,6,,2,,,4,,,8,7,6h[4:1],,,,
2,5,2,5,(133.875)3,,8-4[12:1],1,,7>2[4:1],8b,,,,,,,,3,4,,4,5h[16:3],,,6-2[8:1],,1z5[2:1],,,8,,,
(357)3h[2:1],,,,,,,,,,,,,,{32},{16}2b,,,,1b,,,,8b,,,,7b/3b,,,,2b/6b,,,,
(178.5)1b/5b,,2,3,4,65,7,8,1b/2b,,2,1,3,8,2,1,3b/8,,5/6b,,7/1b,,3b/4,,1/8b,,5/4b,,1b/8,,5b/4,,2/3b,,7b/6,,2/3b,,7b/6,,1b,1,8b,8,7b,7,6b,6,2b,1,,1,2b,,3b/4b,,7b,8,,8,7b,,5b/6b,,1b,8,,8,3b,,6b/5b,,8b,1,,1,6b,,3b/4b,,8b,7,6,1b,8,7,2b,1,8,3b,2,1,4b/8b,,26,,1b,2b,3b,8b,1b,2b,7b,8b,1b,6b,7b,8b,5bqq7[4:3]/1bqq3[4:3],,7b/3b,,1b/5b,,,,,,,,,,,,,,,,
1,5,,37,,26,,,1,5,{24}2,3,4,{32}6,7,8,1,2,3,4,5,
{16}1b-5[8:1],,2-4[8:1],,1b,,2,,8b-4[8:1],,7-5[8:1],,8b,,7,,2bv7[8:1],,6-3[8:1],,2b,,6,,8b,1,4b,5,8b,1,4b,5,1b-6[8:1],,2-5[8:1],,1b,,2,,7b-4[8:1],,8-3[8:1],,7b,,8,,6h[16:1],,6h[16:1],,6h[16:1],,6h[16:1],,2b,3b,6b,7b,2b,3b,6b,7b,8b-5[8:1]/4b,,2b-4[8:1],,8b,,2b,,6b-8[8:1],,4b-1[8:1],,6b,,4b,,7b,,3,4,3,,2,,6,5,6,5,7,4,7,4,8,,1b/2b,,3,,4b/5b,,6,,7b/1b,,5-8[8:1]/4-1[8:1],,2b/7b,,,,,,2,3,4,5,6b/7b-4[8:1],,6b/7b,,,,,,
3h[1:1],,,,,,,,,,,,,,,,7h[8:7],,,,,,,,,,,,,,1h[2:1],,,,,,,,5pp5[2:1],,,,,,,,,,
4h[2:1],,,,,,6,7,8h[16:3],,,1h[16:2],,{32}7,,,6,,,
{16}5<8[16:3],,,,1,2,3,4,5qq6[2:1],,5>1[8:3],,,,,,,,,,,,8-3[8:1]*-5[8:1],,,,
8bqq3[2:1],,,,,,,,,,2>5[8:1],1,8-3[8:1],7,6-1[8:1],,,,,,,,4h[8:1],,,4h[8:1]/6,,,4h[8:1]/2,,,48,,48,7,6,5,4,3b/7b,,,,5,4,6,,2,1,3,,7,8,6,,1b/5b,,1b/5b,,{24}2b,3,4,5b,6,7,2b,3,4,5b,6,7,{16}8-5[8:1]/4b,3,2,,1b/8b,,,,1b,7,1,7,2b,6,2,6,3b,5,3,5,4h[4:1],,,,
{24}7b,6,5,4b,3,2,7b,6b,5b,4b,3b,2b,{16}1b/8b,2,3,4,5b/7b,,1,5,1,5,1s5[4:1],5,2,,,,,,,,7h[4:1],,,,,,{24}4b/7b,36,25,1/4z8[4:1],,,1,,,,,,,,,
{16}2b,,3b/5b,,6b,6,5,,8b,,7b/3b,,5b,5,1,,6,7,8,1,{24}4b,4,4,4,,,{16}35,,2,4,2,6,4,6,
6b/5,,47,,6-1[8:1]/3,,5-2[8:1]/8,,6b,,5b,,7,,3h[4:1],,,,4,,2-5[8:1],6,1-6[8:1],5,2b,,1b,,3,3,7,7,
2>5[8:1],,8,,2,,7<4[8:1],,8>3[8:1],,7bV51[4:1],,8b,,7b,,,,4h[4:1],,8,7,6,5,4b/2b,,3bv8[8:1],3,7,,,,
7b,,26,,4/8-3[8:1],,3/7-4[8:1],,8b,,7b,,2,,6h[4:1],,,,1,,6,7,2,3,4b/8b,,7,5,6,2,1,3,8-4[8:1],,7,,8b/1-5[8:1],,2,,1b/7-1[8:1],,6,,7b,,3b,,5,4,6,3,5,4,7,2,6,3,8,1,5,4,6,3,2b/7b
,,5b,4,5b,4,5b,4,7-3[8:1],1,6,2,7b,,1b>3[8:1],,,,1,,5,6,7,8,{32}7b,6,5,4,3,2,1,8,{16}7b/3b,,5b,5,1b,8,7,6,5,4,3,2,{24}8b,7,6,2b,3,4,7b,6,5,1b,2,3,{16}7b-3[8:1],,8b,,7b,8,1,,2b/5b,,3b/4b,3b/4b,,6b/5b,6b/5b,,2b/1b,,3b,7,1,6b,2,8,3b,4,3,6b,5,6,4b/5b,,,,
2b,6,4,7b,3,5,1b,,1b,,,{32}2b/8b,37,64,5,,,{16}1,5,1,5,2,6,2,6,{32}3bw7[8:1],4b,5b,6b,7bw3[8:1],8b,1b,2b,3b,,,,,,,,,,,,5b,6b,7b,8b,1b/2bw6[8:1],,,,,,,,2b,,,,,,,,4b,3b,2b,1b,8b-4[8:1],,,,,,,,8b/6,,,,7-3[8:1],,,,7,,,,7b/2,,,,1b,,,,1b-5[8:1],,3,,1,,3,,1b,,,,4bw8[8:1],,,,,,,,4b,,,,,,,,{24}2,3,4,56,7,8,1b-5[4:1],,,,,,4b,,,4b,,,4b,,,4b,,,4b/8b,,,4b/8b,,,4b/8b
,,,{32}4b/8b,7,6,5,4,3,2,1,8b/4b,,3b,,7b,,2b,,6b,5,4,3,2,1,8,7,6/2b,,2b,,2b,,2b,,,,,,2b,3b/1b,4b/8b,5b/7b,6h[2:1],,,,,,,,,,,,,,,,(357)5bp1[4:1],,,,4b,,,,3b
,
