&title=泥濘鳴鳴
&artist=コメティック
&first=0
&des=白川彩羽
&clock_count=3
&lv_5=14
&inote_2=(190)
{16}2/7V53[16:3],,,,5/7,,2-5[8:1],,,,1/2,,,,7,8,
{16}7b,,1/6,,2,5,3,4,1b,,3/8,,7,4,6,5,
{16}8b,,7,5,6,3,4,,2b/8b,,7,3,6,4,7,3,
{16}7^4[8:1],,8,4,7-3[8:1],,3,3,7,,2,2,7-4[8:1],,8v3[8:1],1,
{16}7,,8,,6,,6,,
{24}4h[8:1]/7^4[8:1],8,1,2,,,7,,,3,,,
{16}2-5[8:1],,1,5,2-6[8:1],,6,6,2,,7,7,1-5[8:1],,8,,
{16}1b/7^4[8:1],,6,,
{24}7b/8-4[8:1],1,2,3,,,7b/8^3[8:1],,,6,,,7/8b,6,5,4,,,
{8}3/4,3/4,3/4,3/4,2/5,2,3/6,6,
{8}4/7,4,3/8,8,1/2,2,3/7,7,
{16}4,6,4,6,4,6,4,6,2,4,2,4,2,4,2,4,
{16}1,5,1,5,1,6,1,6,1,7,1,7,1,8,1,8,
{32}1b,2,3,4,,,1b,2,3,4,,,1b,2,3,4,,,1b,,,,,,7,,8,,7,,8,,
{32}7b,6,5,4,,,7b,6,5,4,,,7b,6,5,4,,,1b,,,,,,2,,4,,2,,4,,
{32}1,,,,1/5,,,,
{24}1b/5b,2/6,3/7,4/8,,,1/5,,,1/5,,,1b/5b,4/8,3/7,2/6,,,
{16}1,5,1,5,1,5,1,5,2,6,2,6,2-7[8:1],6-3[8:1],2,6,
&inote_5=(190)
{8},,,,,,,,,,,,B6,E2,E1,B3,C,,E3,B7,E5,B6,C,,B7/B8/E8,B7/B8/E8,B3/B4/E4,B3/B4/E4,7,7h[8:3],1,2,3,,8,8/C,,2/C,,6/C,,4h[8:3]/Ch[8:9],,,,,,,,,1b,,1/7,2/8,1-4[8:1]/7-4[8:1],2/8,1/7,,2/8,1/7,2-5[8:1]/8-5[8:1],1/7,2/8,,6/2,2/6,3/7,3/7,2v5[8:1],8v5[8:1],2,8,1b,,7v4[8:1],1v4[8:1],7,1,8b,,7-1[32:3]/2-5[32:3],,7/2,,2/8,1/7,2-5[8:1]/8-5[8:1],1/7,2/8,,1/7,2/8,1-4[8:1]/7-4[8:1],2/8,1/7,,3/7,3/7,2/6,2/6,7/4,2/5,7-5[32:3]/4-1[32:3],2/5,7/4,,2/5,7/4,2-4[32:3]/5-8[32:3],7/4,2/5,,C/B6/B7/E7/B2/B3/E3,,Ch[8:6]/B6/B7/E7/B2/B3/E3,,,,,,,,,,
{8}1pp5[8:3],5,1,,8,8h[8:4],,2,5,3,4-1[8:1],4-7[8:1],4-8[8:1],,,,7h[8:1],6,2h[8:1],1,8h[8:1],7,
{16}2,,2,3,4,,8,,8,7,6,5,4,5,4,,5,,4,,5pp1[8:3],,1,,5,,2,,2-6[8:1],,,,,,7,,,,1,,1>4[8:1],,1<6[8:1],,1-5[8:1],,,,,,,,7h[8:1],,8h[8:1],,7h[8:1],,6h[8:1],,7h[8:1],,1h[8:1],,7h[8:1],,5h[8:1],,7h[8:1],,2h[8:1],,7h[8:1],,4h[8:1],,7-3[8:1],,3,,7,,,,1/5,,2/6,,3/7,,2/6,,3/7,,4/8,,
{8}8-2[8:1],2-7[8:1],7-3[8:1],3-6[8:1],4,4h[8:2],,8h[8:2],2,2,
{16}2,3,2,3,8,7,8,7,2>5[8:1],1,2,,8,,8h[8:2],,,,2-6[8:1],,1,,2/1,,,,2/8,,1/7,,2/8,,
{8}1/5,4/8,3/7,4/8,3/7,2/6,6,6h[8:4],,B8/B1/E1,C,B5/B4/E5,,,
Ch[8:7],,
{16}1,,1,,2,,2,,3,,3,,4,,4,5,4,5,4,5,
{8}4w8[8:1],3/5,4,,5/4pp1[8:6],,5/4,,8,8-4[8:1],,8,,3/7,
{16}4,6,4,,2v4[8:1]/8v6[8:1],,3/7,,2/8,,,,
{8}2<7[8:2]/7,,2/7<4[8:2],,4>8[8:2],4,,6h[8:1],,7qq5[8:1],,7,1pp3[8:1],,1,,C,,7<5[8:1],,7,1-5[8:1],,1-3[8:1]*-4[8:1]/8-6[8:1],,1/8,,6,5,7,4,,7-4[8:1],8,7,,3,2,,1,8,1x>3[8:1],8x<6[8:1],1x-5[8:1],8x-4[8:1],1x-6[8:1],8x-5[8:1],1x-3[8:1],8x-4[8:1],1x,8bx/C,,,,,,B7,B8,B1,,B2,,B6,,B3,7h[8:2],8h[8:1],,,2h[8:2],1h[8:1],,,,3/6,,,5/4,5h[8:4]/4h[8:4],,,,C/E3/E7,,,,,,7h[8:2],3h[8:2],8h[8:2],,4h[8:2],,1h[8:2],,5h[8:2],,2h[8:11],,,,,,6,,6h[8:3],,,,
{16}6,2,6,2,6,2,6,,
{8}6/2,6/2,8/4,8/4,6/2,6/2,8/4,8/4,7<4[8:1],3v8[8:1],7,3,,1/5,,,
{16}7,6,7,,3,4,3,,8,1,8,,2,1,2,,7/6,,,,3/4,,1-5[8:1]/2-6[8:1],,,,1b/2b,,,,3,4,3,4,1,8,1,8,7,8,7,6,7,6,2,3,2,,6,5,6,3,5,4,4,3,5,4,4,4,4,,3/5,,3h[8:1]/5h[8:1],,,,,,3v8[8:1]/7v4[8:1],,3/7,,3/7,,,,6h[8:1],,,,5h[8:1],,,,4,,3,,1/8,,1-5[8:1]/8-6[8:1],,,,1b-3[8:1]/8b-4[8:1],,,,1b-5[8:1]/8b-6[8:1],,,,1b-3[8:1]/8b-4[8:1],,,,1b/8b,,,,
{8}7/3,8,1,2,3/7,7/3,,2,
{24}2,3,4,5,,,8,1,2,3,,,7,6,5,4,,,1,8,7,6,,,
{8}2/7,1,8,7-4[8:1]/2-5[8:1],,2b/7b,,
{16}1,3,1,3,8,6,8,6,3,4,2,5,1,6,8,,7-5[8:1]/8-2[8:1],,,,7-3[8:1]/8-4[8:1],,,,8>2[8:1]/7<5[8:1],,,,8/7,,,,3,4,3,,,,,,6v3[8:1],,4,,6,,,,2,,,,6,,3-8-2[16:3]/7-4-6[16:3],,,,7b/3b,,
{8},,,C,,6/5,3/4,,1/8,,4/5,,6/7,3/2,,8-5[8:1],8,,1>6[8:2],,7,8,,8<3[8:2],,2,1,,1-5[8:1],,1,,8,2,7,3,6,,4-1[8:1],,4,7,,2<7[32:3],3,4,5>2[32:3],6,7,8<5[32:3],1,2,3>8[32:3],7,6,5>2[32:3],6,7,8-5[32:3],1,2,3-8[32:3],4,5,6-3[32:3],7,8,1-6[32:3],2,3,4,
{16}4,5,4,5,4,5,4,5,4,5,4,5,4,5,
{24}4,5,4,5,4,5,4,5,4,5,,,
{8},7/3,8,1,2,3b/7b,4,5,6,5,4,3,2,1b/5b,8,7,6,5,4,3,2,7b/3b,6,5,4,3,2,1,8,7b/3b,,Ch[8:4],,,,1-5[8:1],,1,,3b/7b,7/3,7,7,1b/7b,1/7,1,1,1b/5b,5/1,5,5,4b/5b,4/5,4,4,4b/8b,8/4,8,8,1b/8b,2/7,2/7,2/7,2/7,2/7,Ch[8:12]/B6/B7/B2/B3/E3/E7,,,,,,,,,,,,,,,,7-5-8-4-1[8:8]/2,,2,,2,,2,,2,,2,,2-8-3-7-4[8:8]/6,,6,,6,,6,,6,,6,,4/5<3[8:8],,4,,4,,4,,4,,4,,4>6[8:8]/5,,5,,5,,5,,5,,5,,1pp4[8:10]/8,,7,,6,,5,,4,,4-6-8-2-4[8:10],,7,,7,,5,,5,,4qq8[8:10],,5,,6,,7,,7,,8-3-7-4-6[8:15],,1,,1,,1,,1,,1,,1,,1,,1,,,,,,,,,,,,
{16}1b/8^5[8:1],,,,
{24}8b/1-5[8:1],2,3,4,,,8b/1^4[8:1],7,6,5,,,8/1b-5[8:1],7,6,5,,,8b/1,7,6,5,,,
{8}4/6,7-3[8:1]/3,,7/3,,1/2,
{24}2,3,4,5h[8:1],,,8,1,2,3h[8:1],,,7,8,1,2h[8:1],,,8,7,6,5h[8:1],,,4,3,2,1h[8:1],,,8,,,2v4[8:1]/7v5[8:1],,,,,,2/7,,,,,,
{16}1/8,,8,6,8,5,8,4,8,3,8,2,8,1,8,,1b-3[8:1]*-7[8:1]/8,,,,1b-5[8:1],,,,1b-6[8:1]*-4[8:1],,,,1b,,,,1-4[8:1],,4>6[8:2],,,,,,5-1[8:1],,5,,5,,,,8v5[8:1]/2v5[8:1],,,,2/8,,,,5,,5v2[8:1]*v8[8:1],,,,5b,,,,
{32}2/C,3,4,5,6,7,8,1,2/C,3,4,5,6,7,8,1,2/C,3,4,5,6,7,8,1,2/C,3,4,,,,,,
{8}1x-3[8:1],8x-4[8:1],1x-5[8:1],8x-6[8:1],1,8,1-3[8:1]*-5[8:1],,1-4[8:1]*-6[8:1],,1,,
{32}1/4,2,3,4,,,,,1/4,2,3,4,,,,,
{8}2-4-6[8:1],,6,8-4[8:1],,8,,
{16}6,4,7,3,8,2,1,2,8,3,7,4,6,5,6,5,7,5,8,4,8,3,8,2,8-4[8:1],1,8,1,8,,,,1>4[32:3]/4<7[32:3],,1/4,,,,,,3>8[32:3]/8<5[32:3],,3/8,,3/8,,,,
{8}1,,5,5b-8<5[8:2]b/1b-4>1[8:2]b,,1b/5b,,,,1/7,2/8,1>4[8:1]/7<4[8:1],2/8,1/7,,2/8,1/7,2>5[8:1]/8<5[8:1],1/7,2/8,,6/2,2/6,3/7,3/7,2-4[8:1],8-6[8:1],2,8,C,,7-5[8:1],1-3[8:1],7,1,C,,7-1[32:3]/2-5[32:3],,7/2,,2/8,1/7,2v5[8:1]/8v5[8:1],1/7,2/8,,1/7,2/8,1v4[8:1]/7v4[8:1],2/8,1/7,,3/7,3/7,2/6,2/6,7/4,2/5,7-5[32:3]/4-2[32:3],2/5,7/4,,2/5,7/4,2-4[32:3]/5-7[32:3],7/4,2/5,,
{32}2/6,1/5,8/4,,,,,,2/6,1/5,8h[32:70]/4h[32:70],,
{8},,,,,,,,,,,,,,,,,B7/C/B3,
