&title=ドゥーマー
&artist=東京真中
&first=0
&lv_5=13.3
&des=mmfc
&inote_5=(131){4},,,,1h[4:7],
{8}E2/B2/A2,{4}A2/E2/B2,E4,E5,E6,{8}E7,{4}E7,A8/E8/B8,
8h[8:7],{8}E6/B6/A6,A6/E6/B6,,E5,E4,2x>1b[8:5],{4},,,Cf,{8}1x/8x,
1,2/7,7,3/6,3,5/4,5,
4/5,4,3/6,2h[4:1]/7h[4:1],,,,5/6,
{16}8/4,,,4h[4:1]/8<3[16:3],{8},,,,,4/3,
{16}5/1,,,5h[4:1]/1>6b[16:3],{8},,,7x,8,1,
2/8,2/8,3/7,7/3,{4}4/6,{8}4/6,3,
5/2h[4:1],3,1,3/8h[4:1],,4,,4/6,
{16}7/3>5V71[8:3],,,7h[4:1],{8},,,,8x,5/3,
{16}2/6V82-4>6b[2:1],,,2h[4:1],{8},,,B2/B3/E3,{4}B2/B3/E3,
{8}5/1h[8:1],5,{4}1/5,{8}1/5h[8:1],1,{4}1/5,
5/1h[4:1],{8}5h[8:1],2h[8:1],6h[8:1],3h[8:1],{4}7x,
{8}4/8h[8:1],4,{4}8/4,{8}8/4h[8:1],8,8/4,3,
{4}4/8h[8:3],3h[8:3],7h[4:1],2b,
{16}5x/1xh[8:3],,,6,{8}6,5h[8:3],,3,{4}2h[4:1],
7h[8:7],{8}5,5h[4:1],,,C,1h[4:1],
,4h[8:1],2h[8:1],5h[8:1],3h[8:1],6h[8:1],4h[8:1],Ch[8:1],
,,,E1/B1,E7/B7,E5/B5,{4}E3f/B3,
1x>6[4:1],{8}6V41[8:3],7,,1V74[4:1],,8xbh[4:1],
,E4,E3,E2,E1/B1,E7/B7,B5/E5,B3/E3,
{4}8x<4[4:1],{8}4q1[8:3],3,,1V75[4:1],,2,
,E3/D3,E2/D2,E1/D1,E8/D8,E7/D7,{4}E6h[4:1]/D6h[4:1]/A5h[4:1],
3x>8[4:1],{8}8q5[8:3],6,,5V31[4:1],,7,
,E5,E6,E7,B1/B8,B3/B2,B5/B4,B6/B7,
{4}8x<5[4:1],{8}5<8[4:1],4q1[4:1],,,,8xh[4:1],
,4,3,4/2h[4:1],,1,8,7,
{4}5/6h[8:3],{8}B4/B3,B4/B3,,7/5,,4/8,
,5/1,,2/4,{2}2h[4:1]/4>6[4:1],
{4}4,{8}5/7,7h[8:1]/5h[8:1],,4h[8:1]/6h[8:1],,5h[8:1]/7h[8:1],
,4h[8:1]/8h[8:1],,3/7,{4}3h[8:1]/7h[8:1],{64}D7/D3,A2/A6,D6/D2,A1/A5,{16}D5/D1,,,{4}4h[4:7]/8,
{8}1,1h[8:1],,7h[8:1],,1h[8:1],
,7h[8:1],,1,{4}1h[4:1],{64}D2/A5,A2/D6,D3/A6,A3/D7,{16}D4/A7,,,{4}8/4h[8:7],
{8}7,7,8,8,1,1h[8:3],{4},E4/B4/B3,
{8}E1/B8/A8,E7/B6/A6,{4}B3/E4/A3,
{2}Ch[1:3]/1bx,2x,3x,4x,5x,6x,7x,{4}8x,A1f/E1/E2/B1,
{8}2/8,2/8,{4}3/7,{8}1/7,7/1,{4}6/2h[4:1],
5h[4:1],{8}3h[8:1],6h[8:1],4h[8:1],7h[8:1],{4}5h[4:1],
{8}8,8,{4}7/4h[4:1],{8}8,8,3/6h[8:1],2,
{4}2/5<8[4:1],8>3[4:1],3<6b[8:1],1xh[8:17],
7xh[16:3],{8}7,7,,B5,B3,B1,
8h[4:1],,,8h[4:1],,,7,7h[4:1],
,2h[8:1],6h[8:1],3h[8:1],7h[8:1],4h[8:1],8h[8:1],5h[8:1],
C,,,E8/B1,E6/B4,E2/B8,{4}E4f/B5,
1>7[4:1],{8}7-5V31[8:3],8,,1s5[4:1],,8h[4:1],
,E6,E7,E8,E2/B8,E4/B5,E8/B1,B4/E6,
{4}7<3[4:1],{8}3V58[8:3],2,,8V63[4:1],,2h[4:1],
,E3,E2,E1,E8,E7,{4}E6f,
2>5[4:1],{8}5V31[8:3],7,,1<6[8:1],,5h[4:1],
,E5,E4,E3,B1,B7,B5,B3,
{4}7<3[4:1],{8}3q8[4:1],2,,1-5[8:1],,1b,
,8w4b[8:1],,8,,5x/3x,6/2,7/1,
{4}7/1h[2:7],4h[8:1],6h[8:1],4h[8:1],
5h[8:1],3h[8:1],5h[8:1],4h[8:1],
7h[8:1],5h[8:1],6h[8:1],3h[8:1],
5h[8:1],4h[8:1],7bh[4:1],Cf,
6h[4:11]/5h[8:1],3h[8:1],5h[8:1],2h[8:1],
4h[8:1],3h[8:1],5h[8:1],1h[8:1],
4h[8:1],3h[8:1],5h[8:1],1h[8:1],
B7h[8:3]/B6h[8:5]/B2h[8:3]/B3h[2:1]/E3h[8:5]/E7h[2:1],,,B1/B8/E2/B4/B5/E6/E4/E8/Cf,
2>6[4:1],{8}6p8[4:1],7,,7w3b[8:1],,,,5x/1x,
2,3,7q3[8:1],3-6[8:1],{4},2p5[4:1],
{8}5>8[8:3],6,,8V64[8:1]*p4[8:1],,,,3xh[8:5],
E2,E1,E8,E7,{4}E6f,
7<3[4:1],{8}3q8[8:3],2,,1w5b[8:1],,,,3x/7x,
4,5,6-2[8:1],2<7[8:1],{4},3<6[4:1],
{8}6p1[4:1],{4}8p4b[8:1],,4x/1x,1bh[4:1]/4bh[4:1],
{64}D2f/A5f,A2/D6,D3/A6,A3/D7,{16}D4/A7,{8},8/4h[4:1],7h,8,
{4}1-5[8:1],{8}3b,3b-8b[8:1],,7<4[8:1],,3>8[8:1],
,7-4[8:1],,3,{4}3w7b[8:1],A3f,
1-5[8:1]/5,{8}7b,7-3b[8:1],,4-1[8:1],,5-8[8:1],
,2-7[8:1],,6,{4}6-3[8:1],{32}D7,E7,Cf,E3,{8}D3,
{4}2x-5b[8:1],{8}1,1-6[8:1],,4-8[8:1],,7-4[8:1],
,3-8[8:1],,7,{4}7<8b[4:1],Cf,
4bxw8[8:1],Cf,{8}5w1b[8:1],4/6,{4}B3/B7/Cf,
3/7h[1:1],A2/E2/B2,{8}B8/A8/E1,E6/B6/A6,{4}E4hf[4:1]/A4h[4:1]/D4h[4:1],
E
