&title=ヨワネハキ
&artist=MAISONdes; 和ぬか; asmi
&first=-0.1
&des=H@NE
&lv_5=13+
&inote_5=(108)
{1},
{4},,
{8}3<5[8:1],,6<8[8:1],,1,2,3h[4:1],,7<5[8:1],,4>2[8:1],,6qq4[8:1],6<1[8:1],,,3<5[8:1],,6<8[8:1],,2,3,4h[4:1],5,6-4[8:1],7,2-4[8:1],1,
{24}8bz4[8:1],,,,,,,,,,,,1V38[6:1],,,8,,,7h[8:1],,,,,,
{24}7,,7,2,,2h[24:4],,,,6,,6,1V72[6:1],,,2,,,3h[8:1],,,,,,
{24}3,,3,8,,8h[6:1],3,,,4
,,,4V63[6:1],,,3,,,2h[8:1],,,,,,
{24}2,,2,5,,5h[6:1],,,,1,,1,5V36[6:1],,,6,,,7h[8:1],,,,,,
{24}7,,7,4,,4h[6:1],7,,,8,,,7,,,7,,,6/4V68[4:1],,,3,,,
{24}2/4,,,1,,,1h[4:1],,,8,,,7,,,6,,,5V31[4:1]/3,,,6,,,
{24}7/5,,,8,,,8h[8:1],,,1,,,2/8,,,3,,,4>1[8:1],,,5,,,
{24}4<7[8:1],,,5,,,4,,,3,,,2/8,,,7,,,6<1[8:1],,,5,,,
{24}6>3[8:1],,,5,,,6,,,1,,,2/8,,,7,,,6pp1[4:1]/4,,,3,,,
{24}4/6,,,3,,,3,,,2,,,1/7,,,6,,,2qq5[4:1]/7,,,8,,,
{24}2/7,,,6,,,6,,,5,,,2/4,,,3,,,4/6<2[16:4],,,5,,,2qq6[8:3]/6,,,3,,,4h[4:1],,,,,,,,,,,,4>1[8:1],,,3,,,
{24}4<7[8:1],,,,,,4,,,,,,3>6[4:1],,,,,,6<3[4:1],,,,,,
{24}4,,,,,,5-8[8:1],,,,,,5/4-1[8:1],,,,,,6-8[8:1]/4,,,,,,
{24}5-1[8:1]/6,,,4,,,5/8,,,7,,,6<3[4:1],,,,,,3>6[4:1],,,,,,
{24}6<3[4:1],,,,,,3,,,,,,4b-8[8:1],,,,,,,,,,,,
{24}1b/7b,,,1b/7b,,,,,,,,7,3<6[8:1],,,2,,,1qq6[4:1],,,2,,,
{24}3,,,4,,,5,,,4/7,,,3,,3,5,,5,1v4[8:1]*v6[8:1],,,2,,,
{24}1,,,,,,3/7,,,3,,3,7,,7,2,,2,8-6[12:1],,8,1-3[12:1],,1,
{24}8-4[8:1],,,1,,,8,,,2,,,3,,3,6,,6,4-2[12:1],,4,5-7[12:1],,5,
{24}4b-8[8:1],,,5b,,,4b,,,6b,,6,1<6[8:1],,,2,,,3qq8[4:1],,,4,,,
{24}5,,,6,,,7,,,6/1,,,2,,,3,,3,4-1[8:1]*-7[8:1],,,5,,,
{24}4,,,,,,2/6,,,5,,,6,,6,2,,2,5-7[12:1],,,1-3[12:1],,,
{24}5-1[8:1],,,1,,,5,,,4,,,3,,3,7,,7,4-2[12:1],,4,8-6[12:1],,8,
{24}4b-8[8:1],,,8b,,,4b,,,,,,
{4}6pp1[4:3],5,4,3,2pp5[4:3],1,8,7,6pp1[4:3],5,
{12}4,,,3,,,2,3,4,7,6,5,
{8}3/4,1/8,5/6,2/3,2-4[8:1],3,5-7[8:1],6,3,2,1h[8:1],8,7-5[8:1],6,4,3,
{24}2v4[8:1],,2,7v5[8:1],,7,2,,,7,,,3-1[8:1],,,2,,,5-7[8:1],,,6,,,
{24}8,,,1,,,2h[8:1],,,8,,,7/1,,,6,,,5/3>7[8:1],,,4,,,
{8}3v5[8:1],,3,,3>6[4:1],,6<3[4:1],5,4,5,6-8[8:1],,6/4-2[8:1],,4/5-1[8:1],6,4-2[8:1]/5,3,4/5,6,5<3[4:1],,3>5[4:1],4,5<3[4:1],4,3,,4b-8[8:1],,4,,2bz6[16:3]/6b,2b/6b,,,
{24}7<4[8:1],,,8,,,1/7,,,2,,,1/5,,1,6,,6,1,,,7,,7,3,,3,5,,5,1v4[8:1]*v6[8:1],,,2,,,
{24}1,,,,,,3/7,,,2,,2,6,,6,4,,4,8-6[12:1],,8,5-1[8:1],,5,
{24}8-4[8:1],,,5,,,8,,,3,,,2,,2,5,,5,1-3[12:1],,1,4-8[8:1],,,
{24}1b-5[8:1],,,4b,,,1b,,,7b,,7,1<6[8:1],,,2,,,3,,,4,,,
{24}5pp8[4:1],,,4,,,3,,,2,,,1,,,2,,2,8-5[8:1]*-3[8:1],,,1,,,
{24}8w4[8:1],,,,,,8,,,,,,2,,2,5,,5,1v3[8:1],,,4-8[8:1],,,
{24}1-5[8:1],,,4,,,1,,,7,,,6,,6,1,,1,5v7[8:1],,5,8-4[8:1],,,
{24}5b-1[8:1],,,8b,,,5b,,,,,,2h[24:5]/4h[24:5],,,,,,,,,3qq8[4:1]/5h[24:5],,,
{24},,,,,,7,,6,,5,,1h[24:5]/4pp7[4:1],,,,,,,,,1>4[16:2],,,
{24},,,,,,8,,7,,6,,5/3>8[8:1],,3,,,,7<4[8:1]/3,,7,,,,
{24}2/7,,2,,,,5/2p5[4:1],,,,,,5p8[4:1],,,,,,8p3[4:1],,,,,,
{24}7,,,,,,8,,7,,6,,5pp4[4:1]/1h[2:1],,,,,,,,,,,,
{24},,,1,,,2,,3,,4,,6,,7,,8,,2,,3,,
{24}4,,5h[24:5]/7pp5[4:1],,,,,7,,,,4,,,3pp8[4:1],,,,,6,,,,7b,,,,,,7b,,,
{24}2,,,2,3,4,5-1[8:1]/7b,,,6,,,5/2,,,2,3,4,5-1[8:1]/7b,,,6b,,,5b/2,,,2,3,4,5bqq2[2:1]/7bpp2[2:1],,,,,,,,,,,,
{24},,,,,,,,,,,1,7,,,6,,,5h[8:1],,,,,,
{24}2,,,3,,,4h[8:1],,,,,,6,,6,4,,,3/5q8[4:1],,,2,,,
{24}1/5,,,,,,,,,1=,,1,7,,,6,,,5/3,,,2,,,
{24}6/1pp4[4:1],,,7,,,8,,,7,,,6,,,5,,,4/6pp3[8:3],,,3,,,
{24}4h[4:1]/6,,,,,,,,,4,,,3/5>2[8:1],,,4,,,5/7,,,8,,,
{24}7-4[8:1],,,2,,2,7,,,1,,,2,,,6,,6,1-4[8:1]*-6[8:1],,,2,,,
{24}1,,,,,,3/7,,,2,,2,4,,4,6,,6,8<5[8:1],,8,4>1[8:1],,4,
{24}8-4[8:1],,,4,,,8,,,2,,,3,,3,5,,5,8>3[8:1],,8,4<7[8:1],,4,
{24}8b-4[8:1],,,4b,,,8b,,,,,,
{24}7qq4[4:2],,,,,,8,,,,,,1,,,,,,2,,,,,,3qq8[4:2],,,,,,4,,,,,,
{24}5,,,,,,6,,,,,,7qq4[4:2],,,,,,8,,,,,,
{24}1,,,,,,2,,,,,,3,,4,,5,,6,,7,,8,,
{24}1/3,,,4/6,,,1/7,,,2/4,,,1pp5[2:1]/5,,,,,,6,,,,,,7,,,8,,,7,,,6,,,5pp1[2:1]/1,,,,,,2,,,,,,3,,,4,,,3,,,2,,,1pp4[2:1]/5,,,,,,6,,,,,,7,,,8,,,7,,,6,,,4,,3,,2,,8,,7,,6,,5/3,,,2/8,,,3s7[8:1]/7,,,1/5,,,,,,
