&title=シスターシスター
&artist=せきこみごはん
&first=0
&lv_6= 14
&des_6=凡絵
&inote_6=
(150){4},{1},{4},,,{24}8xh,
6xh,7xh,1xh,3xh,2xh,7xh,5xh,6xh,2xh,4xh,3xh,{32}E6,E7,E8,E1,E2,E3,E4,E5,5-1[8:1],6,7,8,1,2,3,4,
{4}5bx,{12}2h[24:1],2h[24:1],2h[24:1],3h[24:1],3h[24:1],3h[24:1],4h[24:1]/5-1-5b[2:3],5/4h[24:1],5/4h[24:1],
,,,,,,{4}B3h[2:1],B7h[2:1],
,,{2}1b-5[8:1],
{12}8bx-4[8:1],8,8,7bx-3[8:1],7,7,6bx-2[8:1],6,6,5bx-3-1-7-5>4-2-8-6-4>6[24:23],5,5,
{1}4bxh[1:1],
{4}5bxh[2:1],,,D6h[4:1],
{24}A1,D2,{12}A2,{24},,A4,D4,A3,D3,A2,D2,{4}A1h[4:1],{12}6-4[8:1],,B3,
{6}3-7[8:1],{12}E1,8-2[8:1],,A4h[12:7],{4}8,{24}D2,A1,D1,A8,D8,A7,
{4}D7h[24:23],{24}D4,A3,E3,A2,{12}D2,{24}D8,A7,E7,A6,{12}D6,{24}E5,B4,C,B8,{12}E1,
{4}1bx<8-4<5-1[8:5],A8/A1/D1f,8x-6[8:1],8x-4b[8:1],
{12}8-2b[8:1],3,3,8-6b[8:1],5,5,{4}8x-2[8:1]/5x-3[8:1],8b/5b,
1x-6[8:1]/4x-7[8:1],4b/1b,8x<8<5[8:3]/5x-1[8:1],8b/5b,
{24}A2,D3,A3,D4,A4,D5,{4}A5h[4:5],{24}3,E4,{12}E5,{24}6,E7,{12}E8,{24}1,E2,{12}E3,
{24}4,E5,{12}E6,{24}7,E8,{12}E1,{24}2,E3,{12}E4,{2}6x<3[4:1],
{4}4h[2:1],{24}3,2,1,8,7,6,{6}5v2[6:1],2-7[6:1],,4v1[6:1],
1-6[6:1],,5v8[6:1],8>3[6:1],3v6[6:1],
D2,C,D6,D8h[6:1],Ch[6:1],D4h[3:2],
{24}3,2,1,8,7,6,5,4,3,2,1-5b[6:1],8,{6}7h[6:1],A1,,1>4[8:1],
{12}8,1<6[8:1],{6}7,1-4[8:1],{12}5,1-6[8:1],{6}6,
1-5[8:1],{12}8,1/7-3[8:1],{6}6,7-2[8:1],{12}E4,7-4[8:1],{6}E3,
7>2[8:1],{12}B1,7<4[8:1],{6}B5,7-2[8:1]/3-6[8:1],{12}C,7/3>8[8:1],{6}E2/E6,
{24}6,5,4,3,2,1,8-4[8:1]*-4[8:1],7,6,5,,,{2}8w4b[8:1],
{12}4x-6b[8:1],7,7,4-2b[8:1],1,1,{2}4x-6[8:1]/1x-7[8:1],
{24}D7,E7,B7,C,B3,E3,{4}D3,{12}7v4[8:1],6,4,7/3v8[8:1],2,8,
{4}3/7<4[8:1],{24}D3h[4:3],E3h[24:17],{6}B3h[3:2],{24}D7h[2:1],E7h[24:11],{12}B7h[12:5],,{4}Cfh[4:1],
{12},,,,,,{6}1>7[6:1],{12}7>2[12:1],{72}A1f,D2,A2,D3,A3,D4,A4,D5,A5,D6,,,,,,,,,{6}5>1<4[4:1],
{12}3,{72}A5f,D5,A4,D4,A3,D3,A2,D2,A1,D1,,,,,,,,,{4}2b-4b[8:1],2/1b-5b[8:1],
1/8b-4b[8:1],8/7b-5b[8:1],{24}7/4-8[8:1],3,2,1,,,{12}A4,{24},,7x/1x,A6/A2/B2/B6,
{2}5xpp4[4:1]/3xqq4[4:1],{4}E5/E4/A4/B4f,{12}A4h[8:1],{24},,5x/3x,A6/B6/B2/A2,
{12}7x<1[14:3]/1x>7[14:3],,,,,A6/B6/B2/A2,8bxh[4:1],,,,,4bxh[12:1],
{6}D7/E7/B6/E6/D6/A6h[2:1],A5/B5/B4/A4/D5/E5fh[3:1],{3}D4/E4/B3/E3/D3/A3h[6:1],{12},,,8bxh[12:1],
{6}D3/E3/B2/E2/D2/A2,A1/B1/B8/A8/D1/E1,D8/E8/B7/E7/D7/A7,{24}1xq5[8:1],1,1x,1,1x,1,{4}1x,
{24}7xp3[8:1],7,7x,7,7x,7,{4}7x,{24}8x-5[8:1]*-3[8:1],8,8x,8,8x,8,{4}8xw4b[8:1],
{2}8b,{48}A8,D8,A7,D7,{12}A6h[8:3],{48},,,,A2,D3,A3,D4,{6}A4h[6:1],
{4}5-8[48:5],{48}5xw1[48:5],E6,B6,B7,E8,A8,,,,,,,5w1[48:5]*w1[48:5],E5,B4,B3,E3,A2,,,,,,,5bw1b[48:5],E6,B6,B7,E8,A8,,,,,,,5b,
E5,B4,B3,E3,A2,,,,,,,,,,,,,,,,,,,{12}1h[2:1]/8h[24:1],7h[24:1],6h[24:1],5h[24:1],4h[24:1],3h[24:1],
{2}2h,{24}D8h[2:1],D2,A2,D3,A3,D4,A4,D5,A5,D6,A6,D7,
{4}A7,4h[4:1],{24}1,8,{12}7,{24},,6,7,8,1,2,3,
{4}4h[4:1],{12}3-5[8:1],,B6,{6}3/6-2[8:1],{12}E1,6/1-7[8:1],,A5h[12:7],
{4}1,{24}D8,A8,D1,A1,D2,A2,{4}D3h[24:23],{24}D6,A6,E7,A7,{12}D8,
{24}D2,A2,E3,A3,{12}D4,{24}E5,B5,C,B1,{12}E1,{4}8bx>1-5>4-8[8:5],A1/A8/D1f,
{6}1bx-3[8:1],1b,E3/A8,4x-1[6:1]*-1[6:1],3x,6x-3[6:1]*-3[6:1],
6x-1[6:1]*-1[6:1],1x-4[6:1]*-4[6:1],2x-7[6:1]*-7[6:1],3x,5x-8[6:1]*-8[6:1],8x-3[6:1]*-3[6:1],
{2}1x-6[6:1]*-6[6:1],{24}7x/2x,6/3,{12}5h[6:1]/4h[12:17],{24},,,,,,,,6,
E6,{12}E5,{24}3,E3,{12}E2,{24}8,E8,{12}E7,{24}5,E5,{12}E4,{24}2,E2,{12}E1,{24}7,E7,{12}E6,
{6}3x>6[4:1],A4,A5,5h[4:1],{24},,6x,5x,{6}4x,
3/B8/E8/B7,5/A1/E2/B2,2/B6/B5/B4,E4/B3/E3/7-3[6:1],E6/B5/E5/1-5[6:1],2/C,
{24}C/4>5[3:1],,,,,,,,,,,,,,,,,1,2,3h[12:1],,{8}6h[3:1],
{24},,,,,4,3,2h[12:1],,{8}7h[8:5],{24},,,,{6}A1h[6:1],A8,
{32}1b,2,3,4,,,,,8b/1h[32:3],7,6,5,,,,,2b/1h[32:3],3,4,5,,,,,7b/8h[32:3],6,5,4,,,,,6h[32:3]/E2f,
E3,E4,E5,,,,,3h[32:3]/D8f,D7,D6,D5,,,,,{2}1b-5-1b[4:5],
{6},,,B7h[3:1],B3h[6:1],,{2}5-1[8:1],
{6}2V46b[6:1],{12}6<7v1>2b[3:1],{36}A2,E3,E4,A4,E5,E6,A6,,,{6}2V46b[6:1],
{12}8,{36}A2,E3,E4,A4,E5,E6,A6,,,{4}7b-5b[8:1],7/8b-4b[8:1],
8/1b-5b[8:1],1/2b-4b[8:1],{24}2/5-1[8:1],6,7,8,,,{12}A5,{24},,2x/8x,A3/A7/B7/B3,
{2}4xqq5[4:1]/6xpp5[4:1],{4}E5/E6/A5/B5f,{12}A5h[8:1],{24},,4x/6x,A3/B3/B7/A7,
{12}2x>8[14:3]/8x<2[14:3],,,,,A3/B3/B7/A7,1bxh[4:1],,,,,5bxh[12:1],
{6}D3/E3/B3/E4/D4/A3h[2:1],A4/B4/B5/A5/D5/E5fh[3:1],{3}D6/E6/B6/E7/D7/A6h[6:1],{12},,,1bxh[12:1],
{6}D7/E7/B7/E8/D8/A7,A8/B8/B1/A1/D1/E1,D2/E2/B2/E3/D3/A2,{24}8xp4[8:1],8h,8xh,8h,8xh,8h,{4}8xh,
{24}2xq6[8:1],2h,2xh,2h,2xh,2h,{4}2xh,{24}1x-5[8:1]*-5[8:1],1h,1xh,1h,1xh,1h,{4}1xw5b[8:1],
{2}1b,2-7<6v4<5[2:1],
5-1<8v3>2[2:1],2<7[2:1]*<7[2:1],
7-2>3v5>4[2:1],4-8>1v6<7[2:1],
7>2[2:1]*>2[2:1],2-7<6v4<5[2:1],
5<5[2:1],{8}5h[4:1],{16},,,,5,4,
6,3,7,2,{4}8-4[8:1],{6}8-6[8:1],{12}1,8-4[8:1],,2,
{6}8<5[8:1],{12}3,4x<7[8:1],3,2-4[8:1],{6}1,{12}2-6[8:1],{24}8,7,{12}6,2>5[8:1],
{24}1,8,{12}7,2,{24}6,7,8,1,,,{4}1-6b[8:1]/5-2b[8:1],A1/D2/D1/D6/A5/D5,
{24}1-6b[8:1]/5-2b[8:1],2/6,7/3,8/4,,,{4}A1/D2/D1/D6/A5/D5,{24}1>7[24:5]/7<2[24:5],2/6,{12}3/5,,,,,{2}1x>8[4:1]/8x<5[28:3],
{12}1x-5[8:1],1,1,2x-6[8:1],2,2,
3x-7[8:1],3,3,4x-6-8-2-4<5-7-1-3-5[4:3],4,4,{2}5h[4:3],
{4},,A7h[4:1],E3/D3/A3/E4/B3/D4,
D1h[4:1],B5/B4/E5/A5/D5/A4,A2h[4:1],E6/D6/A6/E7/B6/D7,
D4h[4:1],B8/B7/E8/A8/D8/A7,A5h[4:1],E1/D1/A1/E2/B1/D2,
D7h[4:1],B3/B2/E3/A3/D3/A2,A8h[4:1],E4/D4/A4/E5/B4/D5,
D2h[4:1],B6/B5/E6/A6/D6/A5,A3h[4:1],E7/D7/A7/E8/B7/D8,
D5h[4:1],B1/B8/E1/A1/D1/A8,A6h[4:1],E2/D2/A2/E3/B2/D3,
D8h[4:1],B4/B3/E4/A4/D4/A3,{48}A1,D2,A2,D3,{12}A3,{48}A5,D6,A6,D7,{12}A7,{48}A2,D3,A3,D4,{12}A4,
{24}7,6,{12}5,{24}8,7,{12}6>1[6:1],{24}2,3,{12}4,7h[24:1],7h[24:1],7h[24:1],8h[24:1],8h[24:1],8h[24:1],
1h[24:1],1h[24:1],1h[24:1],2h[24:1],2h[24:1],2h[24:1],{6}2qq2>3[6:1],{12}3<6[12:1],{48}A2,{288}B2,,,,,C,,,,,B7,,,E8,,,,A8,,,,D1,,,,A1,,,,D2,,,,{96}A2,,,,,,,,,,,{6}7pp7<6[6:1],
{12}6>1[6:1],{48}A7,{288}B7,,,,,C,,,,,B2,,,E2,,,,A1,,,,D1,,,,A8,,,,D8,,,,{96}A7,,,,,,,,,,,{4}8-4b[8:1],8-6b[8:1]/1-5b[8:1],
8-4b[8:1]/1-3b[8:1],8/1-5b[8:1],{24}1/5-1[8:1],6,7,8,,,{12}A5,{24},,2x/8x,A3/A7/B7/B3,
{2}4xqq5[4:1]/6xpp5[4:1],{4}E5/E6/A5/B5f,{12}A5h[8:1],{24},,4x/6x,A3/B3/B7/A7,
{12}2x>8[14:3]/8x<2[14:3],,,,,A3/B3/B7/A7,1bxh[4:1],,,,,5bxh[12:1],
{6}D3/E3/B3/E4/D4/A3h[2:1],A4/B4/B5/A5/D5/E5fh[3:1],{3}D6/E6/B6/E7/D7/A6h[6:1],{12},,,1bxh[12:1],
{6}D7/E7/B7/E8/D8/A7,A8/B8/B1/A1/D1/E1,D2/E2/B2/E3/D3/A2,{24}7xp3[8:1]*q3[8:1],7h,7xh,7h,7xh,7h,{4}7xh,
{24}1xq5[8:1]*p5[8:1],1h,1xh,1h,1xh,1h,{4}1xh,{24}8x>3[8:1]*<5[8:1],8h,8xh,8h,8xh,8h,{4}8xw4b[8:1],
{2}8b,{32}8/2h[8:1],7,6,5,{8}4,{32}1/7h[8:1],2,3,4,{8}5,
{32}1b/4-1[48:5],8,7,6,{8}5,{48}4xw8[48:5],E4,B3,B2,E2,A1,,,,,,,4w8[48:5]*w8[48:5],E5,B5,B6,E7,A7,,,,,,,4bw8b[48:5],E4,B3,B2,E2,A1,,,,,,,4b,
E5,B5,B6,E7,A7,,,,,,,,,,,,,,,,,,,{12}1h[24:1]/8h[2:1],2h[24:1],3h[24:1],4h[24:1],5h[24:1],6h[24:1],
{2}7h,{24}D2h[2:1],D8,A7,D7,A6,D6,A5,D5,A4,D4,A3,D3,
{4}A2,{24},,,,,,,,,,,,7,6,5,4,3,2,
8,7,6,5,4,3,7/2,8,1,2,3,4,6-2[12:1],5,4,3,2,1,{4}8/6,
E
