&title=不死身ごっこ
&artist=ピノキオピー
&first=0.816
&des_1=MMFC13
&des_2=MMFC13
&des_3=MMFC13
&des_4=MMFC13
&des_5=LRLDMULR
&lv_5=14
&des_6=MMFC13
&des_7=MMFC13
&des=MMFC13
&clock_count=4
&inote_5=(147)
{1},
{1},,,
{4},,{8}C/B3/B4/B5/B6/E6/E5/E4,,1-4[8:1]/7,7,
{8}B6h[8:1],,8,8,{16}3,5,3,5,
{8}2,1/7,{16}6,2,6,2,5,3,5,3,{8}B4/C,,8-5[8:1]/2,2,
{8}B3h[8:1],,1,1,{16}6,4,6,4,
{8}7,8/2,{16}3,5,3,5,4,6,4,6,{16}B1,B7,B3,B5,{8}2x-5[8:1],8/1,
{8}B6h[8:1],,8,1/2,{16}8,3,7,4,
{8}6,3/5,{16}2,4,3,5,4,6,5,7,
{16}1v3[8:1]*v7[8:1],8,2,,1,,,,
{8}E6h[8:1],2,{8}E4h[8:1],6,E8h[8:1],3,E2h[8:1],6,
{16}8,4,7,3,6,2,5,1,4w8b[8:1],,,,,,,,
{16}2-4[12:1]/6,,,8,8/2,,E1,,7-5[12:1]/2,,,1,1/7,,E1,,
{16}2-5[8:1]/7,,,8,8/2,,E1,,7-4[8:1]/2,,,1,1/7,,E1,,
{16}3>8[8:1]/6,,,5,5/3,,E5,,6<1[8:1]/3,,,4,4/6,,E5,,
{16}3-6[8:1]/6,,,5,5/3,,C,,7/2>4[12:1],,1/8,,{32}6/2,7,8,,{16}8bx,,
{16}5,6,,6,,6,B1/B8,6,5,6,7,6,5,,1/7,,
{16}4,3,4,3,,3,B1/B8,3,4,3,2,3,4,,E7/B6/E3/B3,,
{16}1,8,1,8,,8,B3/A3,8,1,8,6,8,1,,{32}E3,E4,E5,,
{8}E1h[8:8],,,,{24}2,,3,,4,,5,,6,,7,,
{2}8v3[4:1],6q2[4:1],{8}3,,3,2,{32}2x,3x,4x,5x,6x,7x,8x,1x,{8}2bh[8:1],6,
{16}4b/8b,,7,7,1-4[8:1],6,4p8[8:1],7,1b,,,,6,,6,,
{16}7b/3b,,2,2,8-5[8:1],3,5q1[8:1],2,8b,,,,4,,4,,
{8}8/2h[8:1],6,1/7h[8:1],3,8/2h[8:1],5,1/7h[8:1],4,
{32}8/2,3,4,5,6,7,8,1,2,3,4,5,6,7,8,1,
{8}2b/Ch[8:1],,{16}1/8,,7,,
{16}6b/2b,,1,1,7<4[8:1],2,4q8[8:1],1,7b,,,,2,,2,,
{16}3b/7b,,8,8,2>5[8:1],7,5p1[8:1],8,2b,,,,7,,7,,
{32}6h[16:3]/E3,B2,B1,E1,,,,,5h[8:1]/4,,,,,,,,3h[16:3]/E7,B7,B8,E1,,,,,4h[8:1]/5,,,,,,,,
{16}5h[16:1],4h[16:1],6,,4h[16:1],5h[16:1],3,,
{8}5v8[8:1]*v2[8:1],7/3,5b,,
{4}B7h[16:2]/B3h[16:3]/B6h[16:4]/B4h[16:6]/A7h[16:8]/E7h[16:8]/A6h[16:8]/A3h[16:10]/A4h[16:10]/E4h[16:10],,,5-7[8:1],
{16}5b-3[8:1],,8,8,5b-7[8:1],2,,2,5b-1[8:1],,8,,5b,,,,
{4}B3h[16:2]/B7h[16:3]/B2h[16:4]/B8h[16:6]/A3h[16:8]/E3h[16:8]/A2h[16:8]/A7h[16:10]/A8h[16:10]/E8h[16:10],,,1-3[8:1],
{16}1b-7[8:1],,4,4,1b-3[8:1],6,,6,1b-5[8:1],,4,,1b,,6,,
{16}3/7,,6,6,1bv4>3b[8:1],8,3v8>1[8:1],5,1b,,,,6,,7,,
{16}6b/2b,,3,3,8v5<6b[8:1],1,6v1<8[8:1],4,8b,,{32}2x,3x,4x,,{16}2h[16:1],,2h[16:1],,
{4}1-5[2:1],,,,
{16}3-6[8:1]/8,,,,5,,5,,3-6[8:1]/8,,8,,5,,5,,
{16}3b-6[8:1]/8,,,,5,,5,,3/8,,2,,8-5b[12:1]/1-4b[12:1],,2/7,,
{16}1b/8b,,,,6-3[8:1],,6,,7-2[8:1],,7,,6-3[8:1],,6,,
{16}8-4[8:1],,8,,1-5[8:1],,1,,2b,,,,7,,7,,
{16}4,6h[16:2],,2-5-1-4[8:3],4h[8:1],,,,E1,,E8,,E7,,,,
{16}5,3h[16:2],,7-4-8-5[8:3],5h[8:1],,,,E1,,E2,,E3,,,,
{16}4,6h[16:2],,2-5-3-8[8:3],4h[8:1],,,,E8,,E7,,E6,,,,
{4}E5h[1:1],,B2/E3,E7/B7,
{4}4>5[1:1],,,,
{8},,,8,1-5[12:1]/8-4[12:1],,1/8,,
{16}2/8,,3/7,,4,6h[8:1],,1,5,1,7,3,7,5,{32}1,8,7,,
{16}2,6,2,4,2,8,2,6,8,6,4,6,2,6,8,,
{16}7/1,,6/2,,5,3h[8:1],,8,4,8,2,6,2,4,{32}8,1,2,,
{16}7,3,7,5,7,1,7,3,1,3,5,3,{32}6x,2x,6x,2x,6x,2x,6x,2x,
{16}3bx/7bx,,4,5,8V24b[8:1],7,4V68[8:1],6,8b,,,,,,5,,
{16}6b/2b,,5,4,1V75b[8:1],2,5V31[8:1],3,1b,,,,,,,,
{16}1b/2b,3/7,,1b/2b,3/7,,5b/6b,7/3,,5b/6b,7/3,,1/5,,2/6,,
{8}3/7-3[8:1],,5-2[8:1]*-8[8:1],,5-1[8:1],,,,
{16}6>3[2:1],,,,,,,,C,,,,,,,,
{16}6>3[2:1],,,,,,,,C,,,,,,,,
{16}7-5-8-4[8:3],,,,,,,,3-6-1-5[8:3],,,,,,,,
{16}7p4[2:1],,,,,,,,C,,,,,,,,
{4}A6h[2:1]/A5h[2:1]/E6h[2:1]/B5h[2:1]/B6h[2:1],,A2/A1/E2f/B1/B2,,
{4}A3h[2:1]/A4h[2:1]/E4h[2:1]/B4h[2:1]/B3h[2:1],,A7/A8/E8f/B8/B7,,
{4}A2h[8:1]/A1h[8:1]/E2h[8:1]/B1h[8:1]/B2h[8:1],A7h[8:1]/A8h[8:1]/E8h[8:1]/B8h[8:1]/B7h[8:1],A3h[8:1]/A4h[8:1]/E4h[8:1]/B4h[8:1]/B3h[8:1],A6h[8:1]/A5h[8:1]/E6h[8:1]/B5h[8:1]/B6h[8:1],
{4}1-4>3-8>1[4:1],,6h[4:1],A5/D5/A4,
{16}3b/7b,,2,6,4>1[8:1],8,1-5-3[16:3],5,4b,,,,6,,7,,
{16}8b/2b,,7,3,5<8[8:1],1,8-4-6[16:3],4,5b,,,,2,,2,,
{8}3/4h[8:1],1,7/8h[8:1],5,3h[8:1]/4,6,7h[8:1]/8,2,
{32}3/1,4,5,6,7,8,1,2,3/7,4,5,6,7,8,1,2,
{8}3b/Ch[8:1],,{16}1/8,,2,,
{16}7b/3b,,8,4,6<1[8:1],2,1q5q1[16:3],5,6b,,,,4,,3,,
{16}2b/7b,,1,5,3>8[8:1],7,8p4p8[16:3],4,3b,,,,7,,6,,
{8}2/5,8h[16:1],4/5h[8:1],3,7/4,1h[16:1],5/4h[8:1],6,
{16}5,4,6,6,4,5,3,3,
{8}5v8[8:1]*v2[8:1],7/3,5b,,
{4}B7h[16:2]/B3h[16:3]/B6h[16:4]/B4h[16:6]/A7h[16:8]/E7h[16:8]/A6h[16:8]/A3h[16:10]/A4h[16:10]/E4h[16:10],,,5<7[8:1],
{16}5b>3[8:1],,2,2,5b<7[8:1],8,,8,5b-1[8:1],,2,,5b,,,,
{4}B3h[16:2]/B7h[16:3]/B2h[16:4]/B8h[16:6]/A3h[16:8]/E3h[16:8]/A2h[16:8]/A7h[16:10]/A8h[16:10]/E8h[16:10],,,1>3[8:1],
{16}1b<7[8:1],,6,6,1b>3[8:1],4,,4,1b-5[8:1],,6,,1b,,8,,
{16}3/7,,4,6,1b-4>3b[8:1],8,3>1-5[16:3],5,1b,,,,6,,7,,
{16}6b/2b,,5,3,8-5<6b[8:1],1,6-8-4[16:3],4,8b,,{16}3h[16:1],,2h[16:1],,2h[16:1],,
{8}7/1h[16:3],5,2/8h[8:1],4,7/1h[16:3],5,2/8h[8:1],4,
{24}1b,7,1,7,1,7,1,7,1,7,1,7,
{8}1v4[8:1]*-6[8:1],3/5,1b,,
{8}2/8h[16:3],5,7/1h[8:1],4,2/8h[16:3],5,7/1h[8:1],4,
{24}8b,2,8,2,8,2,8,2,8,2,8,2,8
{8}8v5[8:1]*-3[8:1],6/4,8b,,
{128}1-4[2:1],8-5[2:1],{64},{32},{16},{8},{4},{2},
{16}1-3[12:1]/6,,,7,1/7,,E5/B4,,6-4[12:1]/1,,7,8,6,,E1,,
{16}2-5[8:1]/7,,1,8,2,,E1,,7-4[8:1]/2,,8,1,7,,E1,,
{16}2<7[8:1]/5,,,4,2/4,,E7/B6,,5<8[8:1]/2,,4,3,5,,E5,,
{16}3-8[8:1]/6,,4,5,3,,E5,,6-1[8:1]/3,,5,4,6,,E5,,
{16}6-4[12:1]/2,,,8,6/8,,E3/B2,,1-3[12:1]/6,,8,7,1,,E1,,
{16}7-4[8:1]/2,,8,1,7,,E1,,2-5[8:1]/7,,1,8,2,,E1,,
{16}7>2[8:1]/4,,,5,7/5,,E5/B4,,3,,2,4,{4}3-6[8:1],
{4}8-3[8:1],5-8[8:1],2-5[8:1],7-4-2-6-3-1-5[2:1],
E
