&title=Observatory
&artist=かめりあ
&first=0.111
&des=△7sRef▽♪
&lv_5=14+
&des_5=△7sRef▽♪
&inote_5=
(195){4},{16},,,,,,,,,,,,1xh[2:1]/8xh[2:1],
,,,,,,,,,,,,2x,{8}3x,
{16}4x-8[2:1],,,,,,,,,,,,,7x,{8}6x,
5bxw1b[2:1],{16},,,,,,,,,,,,B2,C,
{6}B6,{24}E1/E5,,,E7/E3,,,,A5/A4,{48},,,,,A6/A3,,,,,,,,,{24}A7/A2,,,{12}Ch[12:7],
,,,,,,,,,,7,6,
{6}5<8[4:1],4,3,2,1,1h[6:1],
{16}Ch[2:1],,,,,1,{8}2,{16}3x,,,,,8,{8}7,
{16}6x,,,,,E7,{8}C,{2}E3,
{16}8xh[2:1]/1xh[2:1],,,,,,,,,,,,,7x,{8}6x,
{16}5xz1[2:1]*s1[2:1],,,,,,,,,,,,,2x,{8}3x-5-1-7[8:5],
4bx-2-6-8b[2:1],{16},,,,,,,,,,,,B7,C,
{6}B3,{24}E1/E5,,,E3/E7,,,,A4/A5,{48},,,,,A3/A6,,,,,,,,,{24}A2/A7,,,{12}Ch[12:7],
,,,,,,,,,2,3,4>1[4:1],
,5,,6,,7,,8,,{4}8h[6:1],
{6}E5/B5/B4,B3,B2,B1/E1/B8,B7,B6,
{32}4b,5/3,6/2,7/1,{8}8<6v4<5[8:13]*>2v4<5[8:13],,,,,,,,,,,,,,,,,,,,5x,
5x,5x,
1bxh[#0.6153851],5,6,7,,8,7,6,
5bh[2:1],4,3,2,,1,2,3,
4bh[2:1],5,5,5,,5,5,5,
6bh[2:1],7,7,7,,8,8,8,
6bh[2:1],B7,B8,B1,B2,B3,B4,B5,
7bh[2:1],B6,B5,B4,B3,B2,B1,B8,
5b,5,5,5,5,5,5,5,
{16}5b,4b,5,4,5,4,5,4,5,4,5,4,5,4,5,4,
{4}Ch[2:1],,,Cf,
{8}1b>4[4:1],5,6,7,8b<5[4:1],1,2,3,
4b>1[4:1],8,7,6,5b<8[4:1],4,3,2,
3b<6[4:1],7,8,1,2b<7[4:1],3,4,5,
6b>3[4:1],2,1,8,7b>2[4:1],6,5,4,
5bh[8:1],{16}3,4,{8}3,5bh[8:1],{16}3,4,{8}3,5,5,
4bh[8:1],{16}6,5,{8}6,4bh[8:1],{16}6,5,{8}6,4,4,
3bh[8:1],{16}1,2,{8}1,3bh[8:1],{16}1,2,{8}1,3,3,
6bh[8:1],{16}8,7,{8}8,6bh[8:1],{16}8,7,{8}8,6,6,
1bh[2:1],5,6,{32}7xh[32:1],B7,C,B3,,,,,{8}2,3,4,
8bh[2:1],4,3,{32}2xh[32:1],B2,C,B6,,,,,{8}8,7,6,
5bh[2:1],1,2,{32}3xh[32:1],B3,C,B7,,,,,{8}6,5,4,
1bh[4:1],5,6,7,{32}1b,2,3,4,5,6,7,8,{8}1x,1x,
1bh[2:1],5,6,{32}7xh[32:1],B7,C,B3,,,,,{8}2,3,4,
8bh[2:1],4,3,{32}2x,B2,C,B6,,,,,{8}7,6,5,
4bh[2:1],8,7,{32}6x,B6,C,B2,,,,,{8}3,4,5,
3,6,{32}3b,2,1,8,7,6,5,4,3,2,1,8,7,6,5,4,3,2,1,8,7,6,5,4,
{8}3bh[2:1],8,7,6,,3,4,5,
8bh[2:1],4,3,2,,1,2,3,
4bh[2:1],5,6,7,,8,7,6,
5bh[2:1],4,3,2,,1,2,3,
8bxh[2:1],4,3,2,,4,3,2,
1b>4[4:1],5,6,7,8b<5[4:1],1,2,3,
4b>1[4:1],8,7,6,5b<8[4:1],4,3,2,
1b,2,3,4,5,6,7,8,
{32}8/1bh[4:1],7,6,5,,,,,{16}4,5,{8}3,{16}5,4,{8}6,{16}4,5,{8}3,
{32}1/8bh[4:1],2,3,4,,,,,{16}5,4,{8}6,{16}4,5,{8}3,{16}5,4,{8}6,
{32}8/1bh[8:1],7,6,5,,,,,{16}4,3,{8}4,{16}3,4,{8}3,{16}4,3,{8}4,
{32}1/8bh[8:1],2,3,4,,,,,{16}5,6,{8}5,{16}6,5,{8}6,{16}5,6,{8}5,
8bh,8bh,{4}8bh,{16}4,5,{8}4,{16}5,4,{8}5,
1bh,1bh,{4}1bh,{16}5,4,{8}5,{16}4,5,{8}4,
3b/6,3b/6,,3b/6,3b/6,3b/6,{32}1,2,3,4,5,6,7,8,
1,2,3,4,5,6,7,8,B1,B2,B3,B4,B5,B6,B7,B8,B1,B2,B3,B4,B5,B6,B7,B8,B1,B2,B3,B4,B5,B6,B7,B8,
{3}Ch[1:1],{12}A5,D5,{6}A4,{12},,E6,E5,
{3}E4,{12}E1,B8,{8}B7,E7,B6,B5,
{3}E5/Ch[1:1],{12}E8,E1,{6}E2,{12},,A8,D1,
{3}A1,{12}E1,B1,{8}B2,E3,B3,{24}B4,,E5,
,,,,,,,,{12}6/4,7/3,{6}8/2,{12},,1/8,2/7,
{3}3/6,{12}1x,2x,{8}3xh,4xh,5xh,{16}6x,7x,
{1}8x/4xh[2:3],
Ch[2:1],
{8}8h[4:1],{16},,,,1,2,{8}3,{16},,,,5/3,6/2,
7/1,,,,,A6,D6,A5,,D5,,A4,,D4,,A3,
{8}1h[4:1],{16},,,,8,7,{8}6,{16},,,,6/4,7/3,
8/2,,,,,A3,D4,A4,,D5,,A5,,D6,,A6,
{8}1h[4:1],{16},,,,8,7,{8}6,{16},,,,6/4,7/3,
{48}8/2,,,,,,,,,,,,,,,,,A3,,,D4,,,A4,,,,,,D5,,,,,,A5,,,,,,D6,,,,,,,{6}7xh[2:1]/A6,
5,5,5,{12}4h,5h,{6}4,
5/4,5/4,5/4,5,{12}4h,5h,4h,5h,
{6}4,5,4,5,4,5,
4,5,4,5,{12}4b,4b,4b,4b,
{1}4b<4[4:11],
4b-6-8-2-4[4:7],
Ch[1:1],
{16},,,,,,7,8,1,2,3,4,5,6,7,8,
{8}1bh[#0.6153793],5,6,7,,8,7,6,
8bh[#0.615387],4,3,2,,1,2,3,
4bh[2:1],5,5,5,5h[2:1],4,4,4,
4bh[2:1],6,7,6,5h[2:1],3,2,3,
3bh[4:1],6,6,6,6h[4:1],3,3,3,
7bh[4:1],3,3,3,4h[4:1],7,7,7,
{16}4b,6,4,6,4,6,4,6,4,6,4,6,4,6,4,6,
3b,7,3,7,3,7,3,7,3,7,3,7,3,7,3,7,
2b,8,2,8,2,8,2,8,2,8,2,8,2,8,2,8,
{24}1b,1,1,1,1,1,1,1,1,1,1,1,1,1,1,1,1,1,1,1,1,1,1,1,
{1}1bw5b[4:5],
{16},,,,,,,,,,,,,,,,4b,
5,4,5,4,5,4,5,4,5,4,5,4,5,4,5,
,,{8}E2,E3,E4,{32}4,5,6,7,8,1,2,3,4,5,6,7,8,1,2,3,
{2}4b-8[6:1],{32}2,1,8,7,6,5,4,3,2,1,8,7,6,5,4,3,
{2}2b-6[6:1],{24}8,1,2,3,4,5,6,7,8,1,2,3,
{2}4b-8[6:1],{16}1,2,3,4,8,7,6,5,
{32}1b,2,3,4,5,6,7,8,1,2,3,4,5,6,7,8,1,2,3,4,5,6,7,8,1,2,3,4,5,6,7,8,
{16}1bh[12:1],,,8,,,{8}1h[12:1],{24},8,{48},,,,,,,,{16}8,7,6,5,
4bh[12:1],,,5,,,{8}4h[12:1],{24},5,{48},,,,,,,,{16}5,6,7,8,
1bh[12:1],,,8,,,{8}1h[12:1],{24},8,,,,,{8}1/8,8/1,
7b/2b,7/2,,7-5[8:1]/2-4[8:1],,7b/2b,{16}E8,E2,E6,E4,
{2}Cfh[4:1],{32}8,7,6,5,4,3,2,1,8,7,6,5,4,3,2,1,
{2}8bh[4:1],{32}1,2,3,4,5,6,7,8,1,2,3,4,5,6,7,8,
{8}1bh[4:1],{24},,,,,,8,7,6,{8}5,{24},,,,,,1,2,3,
{8}4,C,{24}8,7,6,2,3,4,7,6,5,1,2,3,6,5,4,8,1,2,
{32}8b,7,6,5,,,8b,7,6,5,,,7b,6,5,4,,,7b,6,5,4,,,{4}C,
{32}1b,2,3,4,,,1b,2,3,4,,,2b,3,4,5,,,2b,3,4,5,,,{4}C,
{16}3,4,2,6,5,7,2,1,3,7,8,6,4,5,4,5,
{8}Ch[2:1],{24},,,,,,A6,B5,B4,{2}A3,
{8}Ch[1:1],{24},,,,,,E2,B1,B8,{8}E8,{24},,,,,,E6,B5,B4,
{4}E4,{16}B1,B2,B3,B4,B5,B6,B7,B8,B1,B2,B3,B4,
{8}B5/Ch[1:1],{24},,,,,,E6,B5,B4,{8}E4,{24},,,,,,E2,B1,B8,
{4}E8,{16}B8,B1,B2,B3,B4,B5,B6,B7,B8,B1,B2,B3,
{8}6b,{16}6,3h[16:1],{8}6,6/3,{16}6,3h[16:1],{8}6,{16}4,5,3,6,
{8}2b,{16}2,7h[16:1],{8}2,2/7,{16}2,7h[16:1],{8}2,{16}5,4,6,3,
6,4,6,4,5,1,5,1,8,4,8,4,5,3,5,3,
{24}8,1,7,2,6,3,5,4,5,4,5,4,5,4,5,4,5xh[24:5],4,{4},{32}3b,
4,5,6,7,8,1,2,3,4,5,6,7,8,1,2,3,4,5,6,7,8,1,2,3,4,5,6,7,8,1,2,
{4}Cf,,,7xh[8:1]/2xh[8:1],
{16}4b,7,5,6,E2,B2,B3,E4,4x,8,5,7,E1,B1,B2,E3,
3bx,4,2,5,8,7,5,6,B4,B5,B6,B7,B8,B1,B2,B3,
3bx,4,2,5,4,8,3,5,4,6,3,5,1,6,3,4,
2b,1,3,8,4,7,5,6,5,6,2,8,3,4,{8}3xh[16:1],
{16}5b,2,4,3,E8,B7,B6,E6,5x,4,1,2,E4,B4,B5,E6,
6bx,5,7,4,1,2,5,4,B5,B6,B7,B8,B1,B2,B3,B4,
5bx,4,6,3,5,1,6,4,5,2,6,3,7,3,6,5,
8xh[16:1],4xh[16:1],7xh[16:1],3xh[16:1],6xh[16:1],2xh[16:1],5xh[16:1],1xh[16:1],B5,B7,B1,B3,B8,B4,B6,B2,
{8}7bxh,7bxh,{32}7b,6,5,4,3,2,1,8,7,6,5,4,3,2,1,8,,,{16}4xh,{48},4xh,{96},,,,,,,,{32}4b,
5,6,7,8,1,2,3,4,5,6,7,8,1,2,3,4,5,6,7,8,1,2,3,,,{16}5xh,{48},5xh,{96},,,,,,,,{32}4b,
3,2,1,8,7,6,5,4,3,2,1,8,7,6,5,4,3,2,1,8,7,6,5,,,{16}4xh,{48},4xh,,,,,{24}7x,
B7,{48},,,8x,,{16}B8,{48},,,1x,,B1,,,,,,2x,,B2,,,,,,,{24}1x,B1,,,8x,B8,{96},,,,,,,,{32}6b,
5b,{16}4bw8b[16:7],{4},,{16},,,{48},{12}3,2,
{6}1,{48}8b,7,6,5,,,,,1b,2,3,4,,,,,,,,,,,,,7b/8,6,5,4,,,,,2b/1,3,4,5,,,,,{6}8b-6[0.6154##0.2051]*-5[0.6154##0.2051],
8b-4[0.6154##0.2051],8b-3b[0.6154##0.2051]*-2b[0.6154##0.2051],8b,8b,8b,
{24},,,{8}8b,{4}8b,{8}8,3,8/2,1,
8-5[8:1],1,2/8,3,1-4[8:1],6,1/7,8,
8<5[8:1],1,2/8,3,1>4[8:1],6,1/7,8,
8-6[8:1],1,2/8,3,1-3[8:1],6,1/7,8,
8p4[8:1],1,2/8,3,1q5[8:1],6,1/7,8,
8-6-4[8:1],1,2/8,3,1-3-5[8:1],6,1/7,8,
8<7-5[8:1],1,2/8,3,1>2-4[8:1],6,1/7,8,
{4}8,{16}8/2,3,4,5,{6}8/6,8b,8b,
{8}4b/5b-8b[8:1],4,3/5,2,4b-1b[8:1],7,4/6,5,
5b<8b[8:1],4,3/5,2,4b>1b[8:1],7,4/6,5,
5b-7b[8:1],4,3/5,2,4b-2b[8:1],7,4/6,5,
{6}8b,8b,{3}8bw4b[6:1],{24},,,,,,,,,,,{8}8b/7b,
{16},6b/5b,,,4b/3b,,,2b/1b,,,{8}B5/B4/C,
,2b/1b,{16},4b/3b,,,5b/6b,,,8b/7b,,,{8}B8/C/B1,
,8bxh[8:1]/C,{16},2h[8:1]/C,,,7h[8:1]/C,,,3h[8:1]/C,,,{8}5h[8:1]/C,
{24},,{12}1,2,3b/7b,4,5,2b/6b,7,8,5b/1b,2,3,
{8}8b/4b,4/8,,8/4,{4}7/5,{8}5/1,4/2,
{32},,,,8,7,{16}6,{32}8,7,{16}6,{32},,,,1,2,{16}3,{32}1,2,{16}3,,,,,,5/4,
,,3/1,,,6/8,,,{8}7/5,{16},2/4,,,8/1,
,,2/3,,,{8}4/5,{16},6/7,,,{4}1/8,
{16}8h[16:1]/1h[16:1],{32},,,,8,7,{8}6,{32}1,2,{16}3,5h[16:1]/4h[16:1],{32},,,,5,6,{8}7,{32}4x,3,{16}2,
{32}8b,1,2,3,4,5,6b,7,8,1,2,3,4b,5,6,7,8b,1,2,3,4,5,6b,7,8,1,2,3,4b,5,6,7,
{16}8b/B5/E5/B4,,,B3/B2/E3,,,{8}C,{16}E1/B8/B1,,,B7/E7/B6,,,{8}C,
{16}4,5,4,5,4,5,4,5,4,5,4,5,4,5,4,5,
1,7,3,5,{32}1bs5z1b[2:9]*<1[2:9],B1,C,B5,{8}A5,{1},,,,{4},,{16},D1,
{8}E1,
E
