&title=Sleep Walking Orchestra
&artist=BUMP OF CHICKEN
&first=0
&des=Sakurago
&clock_count=4
&lv_5=12
&inote_5=(127.00)
{8},,,,,,,,
{8}3h[8:8],,,,E5,,E1,,
{8}6h[8:6],,,,Chf[4:1],,,,
{8}2x-4[8:1],,5,,7V53[8:2],7,3V17[8:2],3,
{8},,{16}4,,,5/2,{8},1,8-4b[8:1],7,
{8},,6-3[8:1],6,2h[8:3],,4q5[8:2],4h[8:3],
{8},,,,2-7[8:1]/6-1[8:1],,2/6,,
{8}8x-5[8:1],,4,,1,6,3,8,
{8}4,,{16}6x,5x,4x,5x,{8},2,3/5,4,
{8}5/7,,6h[8:1],4,5h[8:1],3,7h[8:1],4,
{8}B8/E8,3,B5/B6,2V48[8:2],7-5[8:1],,,,
{8}1-5[8:1]/5,1/5,,,4-2[8:1]/6-8[8:1],4/6,,,
{8}1v4[8:1],,1v6[8:1],,1-5[8:1],,1,,
{8}4>1[8:1]/6pp8[8:1],,,,8<5[8:1]/2pp4[8:1],,,,
{8}3-8[8:1]/7-4[8:1],,7V14[8:2]/3V58[8:2],,,,,,
{8}2h[8:2]/8,,4,,3/5,2,4/6,8,
{8}6h[8:2]/5h[8:2],,,1/8,2/7,3V16[8:2]/6V83[8:2],4/5,,
{8},,1/5,3,4/8,6,1/5,3,
{8}4/8,3/7,6<1[8:1]/2,,3q7[8:1]*<6[8:1],,,,
{8}4bx/7bx,,E7/E5,{16},2,C,,,3,C,,,4,
{16}C,,,5,C,,,6p5[8:2],C,,,,,,,,
{8}E5/B4/B5,,1h[8:2],{16},3,3h[8:2],,,5,5h[8:2],,,7,
{16}7h[8:2],,,2,2h[8:2],,,8,8h[8:2],,,4,4h[8:2],,,6,
{8}6h[8:14],,,3p2-8-6-4>7[8:9],3,,,,
{8},,,,,,,,
{8}4b/7b>2[8:1],,3<6[8:1]/7,4,3/8-4[8:1],7,3/8,2,
{8}1q5[8:1]/5,,1/7,7-2[8:1]*-4[8:1],,7,,1,
{8}2,3/8p3[8:1],6hx[8:1],,,2/5,3/6,4/7h[8:6],
{8},B3/E4,B6/E6,B2/E3,B7/E7,B1/B8/E1,,1,
{8}2/6-3[8:1],7,1-4[8:1]/6,8,1/7qq8[8:2],,3/7,3h[8:2],
{8},1,2/8,3/7,4/5,2/7,,1>6[8:3]/6,
{8},E6,E5,E4,E3,,4/7-3[8:1],3,
{8}2p6[8:1]*q6[8:1]/7,,2,,B3/B4/B7/B8,C,,8-3[8:1]/7-4[8:1],
{8}1/6,,,1-6[8:1]/2-5[8:1],3/8,,,3/7,
{8}3>8[8:1]/7<4[8:1],,3q7[8:1]/7q3[8:1],e,,,,5-1[8:1]/6-1[8:1],
{8}4/7,,,3-8[8:1]/4-8[8:1],2/5,,,1/7,
{8}1>5p8[8:3]/7,,6,6,,7,2/6,3,
{8}4/8-5b[8:1],6,1-4b[8:1]/8,3,1/7p3b[8:1],5,2/7,1,
{8}5/6,8,3V15b[8:2]/6V84b[8:2],1/8,,C,,2,
{8}3-8b[8:1],4,3/5-2b[8:1],6,5/7-4b[8:1],8,1/7,2,
{8}3/5,4/6,2/4,5/7,{32}2x/C,3x,4x,5x,6x,7x,8x,1x,{8}2bx/6bx,,
{8}3V17[8:2]/5,,7V13[8:2],,{24}3xV17[8:2],4x,5x,,,,{8}7V13[8:2],,
{8}3V17[8:2],3,7>3[8:2],7,{16}4,5,6,7,{8}8bx/E3f,,
{8}6V82[8:2]/5,,2V86[8:2],,{24}6xV82[8:2],5x,4x,,,,{8}2bV86[8:2],,
{8}6V82[8:2],6,2<6[8:2],2,{16}5,4,3,2,{8}1bx/E7f,,
{8}1>6[8:2]/7,,6>1[8:2],,{24}1x>6[8:2],8x,7x,,,,{8}6b,,
{8}1,{16}2,8,4,6,3,7,1,6,3,8,4w8b[8:1],4,,,
{8},,,,,,,,
