&title=Salt, Pepper, Birds, and the Thought Police
&artist=Mili
&first=1.028
&des=Kurage
&lv_5=13+
&inote_5=(156)
{4},,,,
{12}
3,,3,4,,2h[12:3],,,{24}4x,5x,{12}6x,,,
,,E2,B2,,,7-5[8:1],,,3h[4:1],,,
6,,6,5,,7h[12:3],,,{24}5x,4x,{12}3x,,,
,,8,1,,1,2-4[8:1],,,6h[4:1]/2,,,
5-1[8:1],,,56,,,4-8[8:1],,,24,,,
5-1[8:1],,,57,,,4-8[8:1],,,34,,,
6b/4b,,6b>1[24:5]/4b>1[24:5],,,,,,,A8/B8,,,
,,,1x>4b[8:1]*<6[8:1]/7,,,1x,,,,,,
3pp4[4:1]/4,,,7,,7h[12:7],,,5,5h[12:3],,,
,,4,5,,3,4,,4,2,,,
6qq5[4:1]/5,,,2,,2h[12:7],,,4,4h[12:3],,,
,,,1>4[8:1],,,6<1[8:1],,,3<6[8:1],,,
8,,7,8,7,1h[12:2],,3,2,4,3,,46,,3,4,3,5h[12:2],,7,6,8,7,1x/8x,
{24},,,,E6,E5,{12}E4,,,C,,B1,B8,,,
6,5,7,4,5,3,7h[12:3],,1-5b[8:1],1,,8,
,,2,1,2,8h[12:2],,6,7,5,6,,53,,6,5,6,4h[12:2],,2,3,1,2,8x/1x,
,,A4,E4,E3,A5,E6,E7,A3,E3,E2,A6,E7
,E8,B4,B5,B2,B7,E1,,2-4[8:1]/5-1b[8:1],41,,,
,,,{24}A8,D8,A7,D7,A6,D6,{12}A5,,,6-3[12:1]/3,,B1/B8,
,,,,,2,4,,4-1b[8:1]/5,,,7z3[12:4],
,,,,,,,,2p6[8:1]*v5[8:1]/4,2,,,
,,,7/8-4[8:1],,,81,,2>5b[8:1],2,,6h[12:3],
,,{24}4,3,{12}2h[12:2],,{24}1,8,7,6,5,4,{12}3-6[8:1],,,B1/B8,
,,{24}A5,D5,{12}A4,,,7,,7,5,,5b-8b[8:1]/4b,,,2b-6b[8:1],,,1b,1,,7,57,,4h[12:3]/5h[12:3],
{12},,,{32}4,5,6,7,8,1,2,3,4,5,6,7,8,1,2,3,{12}4,,6bV48[4:1]/2b,
,,3,3,,1,1>7[24:7],,5,5,,8h[12:4],
,,1,1-4[12:1]*-6[12:1],,,1,,5/7>3[12:2],,,7h[12:4],
,,4,4-8[12:1],,,43,,1q6[8:1],7,,5h[12:4],
,,7,7-5[12:1],,8-2[12:1],7,,8/4-8[12:1],,,3-6[12:1]/4,
,,1,1<6[12:1]*>4[12:1],,,1,,5,46,,3b/7bpp6[12:4],
,,5,5,,3,3,,4pp4[12:3]*qq4[12:3],35,,,
,,,A3,B2,D1,D5,B6,A7,{24}C,,,,,6h[24:7],
{12}2h[4:1],,,,,,,,,,,,
6,,6,5,,7h[12:3],,,{24}5,4,{12}3,,,
,,E8,B7,,,2-4[8:1],,,6h[4:1],,,
3,,3,4,,2h[12:3],,,{24}4,5,{12}6,,,
,,1,8,,8,7-5[8:1],,,3h[4:1]/7,,,
4-8[8:1],,,43,,,5-1[8:1],,,75,,,
4-8[8:1],,,14,,,5-1[8:1],,,51,,,
6b/4b,,6b>2[12:2]/4b<8[12:2],,,,,,,A1/B1,,,
,,,8x-4b[8:1]/2x-6[8:1],,,8x/2x,,,,,,
7h[12:5],,,5,,5h[12:7],,,6,6h[12:3],,,
,,4,5,,3,4,,4,2,,6,
2h[12:5],,,4,,4h[12:6],,,3,3,,3<6[12:7],
,,,,,,,,,,,7h[12:3],
,,5h[12:3],,,4,3,,3,2,,8h[12:3],
,,6h[12:3],,,5,3,,3,24,,15,
{24}
,,,7h[24:1]`8h[24:1],,,,,1,2,3,,6,,5,,4,,5,,4,,3,,
2h[24:1]`4h[24:1],,,6,,6h[12:2],,5,,5,,,,,,6,,7,,8,,{16}7,8,
{24}1,,,2,1,,,,34,,,,,8,,,75,,,,,,4,,
35,,,,7,8h[24:7],,,,,,,,,,,{12}1>3[8:1],17,,4-8[8:1],
,,2,2h[12:3],,7<5[8:1],7,,4-8[8:1],4,,6p3[12:4],
,,2h[12:4],,,,,,2/8<6[8:1],8,,5-1[8:1],
5,,7h[12:4],,,2>4[8:1],2,,5-1[8:1],,,6b/5<8[8:1],
,,4b/5>2[8:1],,,5-1[8:1]/7b,,,5b/3qq8[12:7],,,7h[12:7],
,,,,,,,,1>4[8:1]/5<8[8:1],,,1-5[8:1]/5,
,,3,3,,,65,,3>6[12:2]/4,,,7,
,,5-8[8:1],5,,4-1[8:1],4,,3>6[24:5],3p6[24:3],,,
,,,45,,6,57,,3,24,,81,
2b-6[8:1]/7b,,,,,1b<3b[24:9],,,2,2bh[12:5],,,,,{24}1b,8,
7,6h[24:5],,,,,{12}4,4,5,3,,,
18,,3-1[8:1]/6-8b[8:1],,,3pp4-1[24:9]/6qq5-8b[24:9],,,,,,,
,,,45,,3,42,,6,75,,18,
7b-3[8:1]/2b,,,,,8b>6b[24:9],,,7,7bh[12:5],,,,,{24}8b,1,
2,3h[24:5],,,,,{12}5,5,4,6,,,
81,,6-8[8:1]/3-1b[8:1],,,6qq5-8[24:9]/3pp4-1b[24:9],,,,,,,
,,,{32}3,4,5,6,7,8,1,2,3,4,5,6,7,8,1,2,{12}3,,5b/7h[12:3],,,,
{24}A1,D2,A2,D3,A3,D4,{12}A4,,56,,,2h[12:4]/4,,,8,8,,,13,,4,5,,7-3[8:1]/5,
,,2,2-5[8:1],,,6V47[4:1],,,3,,2h[12:4],,,,1-5[8:1],,,81,,7<4[8:1],7,,3h[12:4],
,,1b,1,,8bh[12:1]/2bh[12:1],,,7,5,,54,
,,4,4-8[8:1],,,2-4[12:1],,,6,,7bh[12:3]/5b,
,,5-1[8:1],5,,7-5[12:1],7,,2,2,,4h[12:3]/5h[12:3],
,,,{32}5,4,3,2,1,8,7,6,5,4,3,2,1,8,7,6,{12}5,,7b/3bV51[4:1],
,,6,6,,8,8<2[24:7],,4,4,,1h[12:4],
,,8,8-3b[12:1],,7,8-5[12:1],,4q5b[4:1],8,,2b,
,,1,1>4b[12:1]*<6[8:1],,,1b,,5pp4[4:1],5,,4b>6b[4:1]
,,,,,,,5,,3,24,,8b/1bq6b[12:2],
,,7qq4b[24:9],7,,1,1,,3,3,,6b/2bqq3[12:4],
,,4,4,,6,6,,5pp5[12:3]*qq5[12:3],46,,,
,,,,,,,,,,,{24},3h[24:7],
{12}7h[4:1],,,,,,,,,,,,6,,6,5,,7h[12:3],,,{24}D5,A4,{12}D4,,,
,,,,,,2,,,6h[4:1],,,
3,,3,4,,2h[12:3],,,{24}D5,A5,{12}D6,,,
,,,1,,7,7-5[8:1],,,3h[4:1]/7,,,
4-8[8:1],,,43,,,5-1[8:1],,,75,,,
4-8[8:1],,,42,,,5-1[8:1],,,65,,,
3b/5b,,3b<8[24:5]/5b<8[24:5],,,,,,,A1/B1,,,
,,,8x<5b[8:1]*>3[8:1]/2x,,,8x,,,,,5,
4/6-3[8:2],,,2,,2h[12:4],,,4,4,,,,,5,4,,6,5,,5,7,,7,
3-6[8:2],,,7,,7h[12:4],,,5,5,,,
,,,4,,,3,,,2,,,
1-4[8:2]/5,,,,,,,,,7,,,
8-5[8:2]/4,,,,,,,,,27,,45,
,,,6,,,5,,4-8[8:1],,,,1b,
