&title=十五の月
&artist=本渡枫
&first=0
&des=满月
&lv_5=13
&inote_5=(91)
{1},
{16},,,{64},,,4^1[4:3],{16}5,,,,,,,,,,,,
{16},,,,5^8[4:3],,,,,,,,,,,,
{16},,,,1^4[16:7],,,,,,,,8^5[16:7],,,,
{16},,,,4>5[2:1],,,,,,,,,,,,
{16}8^2[8:1],,,,8h[4:1],,,,7^5[8:1],,,,4h[4:1],,,,
{16}6-8[8:1],,,,2v3-5[6:1],,,,8pp1[6:1]*qq7[6:1],,,,,,,,
{16}2-5[8:1]/4,,3,,6-3[8:1],,,,7h[8:1],,,,1-5[12:1]/7,,,1,
{16}1/8,,,,3b-5[12:1]/4b,,2,,3/6h[8:1],,,,7-5[12:1]/5,,8,,
{16}4/7,,2,,1-5[12:1]/4,,2,,1/7,,8,,1-5[12:1]/2-5[12:1],,3/4,,
{16}1/2,,,,6-4[12:1]/5,,7,,6/3h[8:1],,,,2-4[12:1]/4,,1,,
{16}2/5,,7,,5/8^5[12:1],,1^4[12:1]/4,,8,,1,,7-3-5[6:1],4/8,,2,
{16}1/7,,2,2,3b-5[12:1]/7b,,2,,3/6h[8:1],,,,7-5[12:1]/5,,8,,
{16}4/7,,2,,1-5[12:1]/4,,2,,1/7,,8,,3-7[12:1]/4-7[12:1],,1/2,,
{16}3/4,,,,7-3[12:1]/8,,1-5[12:1]/8,,3/7,,1,,8-4[12:1],,4/6,,
{16}1/8pp3[8:5]*qq5[8:5],2,2,,8b,,,,,,,,,,,,
{16}1/7,,8,8,6^3[8:1],,,,2h[8:1],,,,1v6[8:1]/2,,7,,
{16}8h[8:1],,,,7^4[8:1]/8,,,,3qq2[6:1],,,,7v4[8:1],,6,,
{16}1h[8:1],,,,3^6[8:1]/4,,,,7h[8:1],,,,7/8v3[8:1],,2,,
{16}1h[8:1],,,,3/4^7[8:1],,,,6p1[8:1],,,,8v6[8:1],,7,,
{16}2,,3,3,7^4[8:1],,,,3h[8:1],,,,6^3[8:1],,7,,
{16}2h[8:1],,,,3-5[8:1]/5,,,,6V42[6:1],,,,8V64[6:1],,8,,
{16}1,,,,2^5[8:1],,,,6h[8:1],,,,3^6[8:1],,2,,
{16}7h[8:1],,,,6-4[8:1]/4,,,,3V57[6:1],,,,1V35[6:1],,1,,
{16}8,8,8,,3b/7b,,2,2,4,,5,,5/6,,3^5[12:1],,
{16}2/4,,7,,8<4[4:1],,4,,3,,2,,1-5[8:1],,5,,
{16}1,8b,,,6/4,,7,,5/6,,3,3,4,,6^4[12:1],,
{16}7/5,,2,,1>5[4:1],,5,,6,,7,,8-4[12:1],8b,,,
{16},,1,1,5b^2[8:1],,2^7[8:1],2,,1,,4h[16:3],,,6,,
{16}3/4,,2,2,4^7[8:1],,7^2[8:1],7,,8,,5h[16:3],,,3,,
{16}5/6,,7,,2b-6[12:1]/6b,,3/5,,2/6b-4[12:1],,7,,4-8[12:1]/6,,3,,
{16}4/8b,,,,1/2b,,6b/5,,8bq4[8:1]*p4[8:1]/7,,3/4b,,,,,,
{16}3^8[12:1]/8^5[12:1],,4/6,,3b/8b,,,,2^4[12:1]/4^6[12:1],,1/7,,2/4v3-1[6:1],,,,
{16}7-5[12:1],,8,,7/8-4[12:1],,1,1,2p6[8:1]*<6[8:1]/8,,3,,2,,,,
{16}2^5[12:1]/5^8[12:1],,1/7,,2/5,,,,3^5[12:1],,2q6[12:1],,1^7[12:1],,2p6[12:1],,
{16}1,,2,,1<2[6:1],,,6,6h[4:1],,,,1,,4,5,
{16}1^4[12:1]/6^1[12:1],,3/5,,1b/6b,,,,7^5[12:1]/5^3[12:1],,8/2,,7/5-8^7[8:1],,,,
{16}2^1v3^5[6:1]/5,,,,5,,7,7,8-5^4[8:1]*^1-4[8:1],,2/7,,,,,,
{16}7b-4[12:1]/5b,,8/4,,7/3-8[12:1],,2,,5^7[12:1]/3^5[12:1],,,,3/5pp6[8:1]*qq4[8:1],,,,
{16}5w1[12:1],,,,5<5[4:3]*>5[4:3],,,,,,,,,,,,
{16},,,,,,,,,,,,,,,,
{16},,,,,,,,,,,,,,,,
E
