&title=白鯨と黎明の譜
&artist=Connexio
&first=0.112
&des=墓
&lv_5=14
&des_5=
&inote_5=
(178){4},,,4,
{8}3bh[4:1]`5h[4:1],,,3h[4:1]/5h[4:1],,,4,4,
4bh[4:1]`6h[8:5],,,4h[4:1],,,,5,
{4}5bh[4:1],{8}3,5/3h[4:1],,,6,5h[4:3],
{2}4h[4:1],1bh[8:1],
{8}7h[4:1]/6h[4:1],,,5h[4:1]/8h[8:1],,8b,,,2h[4:1]/3h[4:1],
,,1h[4:1]/4<8[4:1],,,,,{4}3h[4:1],
{8}6,5h[4:1],4,3h[8:5],{24}A8,D8,A7,D7,A6,D6,
{2}5xh[4:1],6h[4:1]/4bh[8:1],
{4}2-4[8:1],1,8-2[8:1],7,
6-8[8:1],5,{8}4-6[8:1],3,{4}3,
1>4[8:1],1/7,{8}1<6[8:1],2,{4}1>4[8:1],
1,{8}8,8,1<6[8:1]*>4[8:1],1x,,,3,
3,2/4,2,3/8,8,7/5,5,
6/4,6,5/3,5,2/4,2,8,1,
{16}7,6,5,4,8,7,6,5,1,8,7,6,2,1,8,7,
{8}4,4,{16}1,2/8,{8}7/3,5,5h[16:1],{4}4/6<8[8:1],
4b/6b,2,{8}3<5[8:1],2,1,8v5[8:1],
,4,3,2<8[8:1],,4,{4}4,
{8}7,7<5[8:1],,4>2[8:1],,8-4[8:1],,4v7<6[4:1]*v1>2[4:1],
3,,,,,5/3,{4}6/2h[4:1],
{8}8<5[8:1],1,2,2<8[8:1],,4,3,2>4[8:1],
,8,8,7p4[8:3],,3,{4}3,
2,{8}3v5[8:1],5>2[8:1],,B7,,8,
{4}8h[8:1],{8}6/2,5h[4:1]/3V51b[4:1],,,{4}Cf,
{8}8,7-1[8:1],6,5h[4:1],,3,3,2>5[8:1],
,6,6,7V15[4:1],,5,4,3,
{4}3V58[4:1],{8}8,1pp6[8:3],,1,,5<8b[8:1],
5qq1[4:1],,,,,8,{4}8h[4:1],
{8}3>8[8:1],4,5,5<8[8:1],,3,4,4h[4:1],
,8,7,6>4[8:1],,6,3,3,
2-6[8:1],2,8-4[8:1],8,1-5[8:1],1,5s1b[8:1],6,
{4}8h[8:3],,,7-5[8:1]/2-4[8:1],
2/7>1[4:1],1>3[4:1],3<5[4:1],5<7[4:1],
7>2[4:1],2>5[4:1],5<8[4:1],8,
3V52[8:3],2-6[0.5056##0.3371],6-8[0.5056##0.1685],1,
4w8[8:1],4,6>4[8:1]/2>4[8:1],2b/6b,
1bp4[8:1]/7bq4[8:1],1/7,8<4[4:1],4>8[4:1],
8<4[4:1],4>8[4:1],8<8[2:1],C,
8-4[8:1],4<7[8:1],2-6[8:1],2,
8<5[8:1]*>3[8:1],8b,8w4[8:1],8b,
{8}1b,7-4[8:1],8h[16:1],2-5[8:1],1,6<1[8:1],7,3-6[8:1],
3,7,7,8,{4}8<5[8:1],{8}3h[16:1],3,
2>4[8:1],8h[16:1],8<5[8:1],7x,2,2,3,4,
8-5[8:1],1h[16:1],2-5[8:1],1,{4}8,1-5[8:1],
1/8,7h[8:1],5h[8:1]/6h[8:1],5h[8:1]/4h[8:1],
4h[8:1]/3h[8:1],3h[8:1]/2h[8:1],{8}2>5[8:1]/1<6[8:1],3h[16:1]/8h[16:1],,,{4}1h[8:1]/8h[8:1],
6h[8:1]/3h[8:1],{16}4,3,2,1,8,7,6,5,
{4}4/3,6/5,{2}1s5[8:1]/8z4[8:1],
{4}2/7,6/3h[16:13],{16}5,6,7,8,1,2,,4x,
5x,6x,{8}1,1,1,{2}2h[4:1]/7-3[8:1],
1s5[8:1],3v8[8:1]/7v4[8:1],
{8}1h[16:1],1h[16:1],5/7,6,{2}5<7[8:1]/3>1[8:1],
8x-3[8:1]*-5[8:1],{16}6h[8:1]/2h[8:1],,,5h[8:1]/3h[8:1],,,{8}4,
{16}7,8,1,2,7,8,1,2,{2}8z4[8:1],
{4}3p5b[4:1],5<1b[4:1],{8}4h[4:1],,,5,
,5<7[8:1],,1-5[16:3],{2}1,
{8}7h[8:5]/2h[8:5],{16},,,,,,,,,,,,1,8,
1,8,{8}1,1,1/8-4-8[4:1],{2}7/2,
{4}3<5[8:1],2h[8:3],{8},7qq5[8:1],1,2,
,2>4[8:1],,6,{4}7>1[8:1],7/5,
4>2[8:1],6h[8:3],{8}5<7[8:1],4,{4}3,
{8}1,1,{4}2/8<6[8:1],4-8[8:1],8,
Ch[2:1],1,{8}1,1,1,1,
{16}7,5,7,5,6,3,5,4,{2}8<1[4:1],
{8},,,,,,,,,,,,,,,,6h[4:1]/5h[4:1],
,,6h[4:1]/5h[4:1],,,6,6,
{4}5h[4:1]/3h[8:1],{8}3h[8:3],5h[4:1],,,,,5bh[4:1]/3h[4:1],
,,3h[4:1]/5h[4:1],,,4,4,
4bh[4:1]`6h[8:5],,,4h[4:1],,,,5,
{4}5bh[4:1],{8}3,5/3h[4:1],,,6,5h[8:3],
{2}4h[4:3],6bh[8:1],
{4}7-5[8:1],8,{8}1-7[8:1],2,{4}2,
3-1[8:1],{8}4,4,5-3[8:1],5-7[8:1],,,{4}1>4[8:1],
{8}1,8<5[8:1],,8>3[8:1],,8,
6>3[8:1],6,,1w5b[8:1],,1,,,{4}7<4[8:1],
{8}7/8,2q5[4:1],,2,,8,
{4}8>3[8:1],{8}4,4-8[8:1],,5,,6,
{4}6-8[8:1],{8}1,2>5[8:1],,2,8,8,
1,1,8/2,8/2,{16}3,7,4,6,2,5,3,4,
{1}1b,
{2},7h[8:3]/2h[8:3],
{16}1,8,1,8,{8}1,{16}6,5,6,5,{8}6,{16}3,4,{8}3,
{16}7,8,7,8,{8}7,{16}2,1,2,1,{8}2,{16}6,5,{8}6,
{4}3p5[4:1],{8}5<2[4:1],5,,4,{4}4,
{8}4/7>2[8:1],6/5,3,3,8/1>4[8:1],7,{4}6,
{16}6,5,6,5,{8}6,{16}3,4,3,2,{8}3,{16}7,8,{8}7,
{16}2,1,2,1,{8}2,{16}7,5,6,5,{8}6,{16}3,4,{8}3,
{4}2/5<8[4:1],{8}8p2[4:1],2,,1-5[8:1],,1,
,8,8<5[8:1],7,4-8[8:1],3,{4}1b,
{8}2,3,5/4,{16}6,5,{8}7,4/8<5[8:1],3,8,
4,3,1/8,{16}3,4,{8}2,8/1-5[8:1],7,1/6,
{4}7>2[16:3],{8}2<6[4:1],3,,3,{4}4-8[8:1],
{8}4/5,6,7,2/8,{16}3,5,{8}3,{4}7/4,
{8}8,7,5/6,{16}4,5,{8}3,6/2>5[8:1],7,2,
6,6,8/7,{16}3,4,{8}3,2/5<8[8:1],1/6,5,
2-6[8:1],2,8-3[8:1],8,4>1[8:1],4,5w1[2:1],5,
{1}5,
{4}6/5h[4:1],B2,{8}4,5,B2,4h[4:1],
,3,,8>3[8:1],{4}7,{8}C,B6,
{4}4,{8}5/6>3[8:1],7/C,,2-6[8:1],E8/B7/B8,2,
5,5,B2/E3/B3,4h[8:1],A8/E8/E1,6h[4:1],{4}2-7[8:1],
2/5<1[4:1],{8}B3/B4/E4,B3/B4/E4,,2>4[8:1],B8/B7/E8,2x,
,6<1[8:1],B4/B3,E2,,3pp5[8:1],{4}B7/B6,
8-4[8:1],{8}1<6[8:1],2,,A5/B5,B4/A4,7,
1>4[8:1],1,{4}8-4[8:1],{8}8,1,{4}E3/B2/B3,
{8}6-4[8:1],1,,2-5[8:1],{4}1,{8}8,7-3[8:1],
,7,,5V37[4:1],{4}A1/E1/E2,8-4[8:1],
8,{8}3,2p6[8:1],,5,{4}4-6-1[4:1],
{8}1V75[4:1],2,{4}B3/B4/E4,{8}1>3[8:1],1,{4}6h[4:1],
8<5[8:1],{8}1,B2/B3/E3,,4v7[8:1],4,1<6[8:1],
,1v3[8:1],,E6,{4}E5,6h[4:1],
{8}1,E6/B6,2,B8/E1,3,{16}8,8,{8}5,4/6,
{1}3h[8:3]/7h[8:3],
6/3,
E
