&title=叫心融解
&artist=GANTZ
&smsg_5=パワーーーッ!!!
&first=0.72
&lv_1=1
&lv_5=14
&des_1=音
&des_5=GANTZ
&wholebpm=165
&demo_seek=43.39
&demo_len=8.01
&inote_1=(165)
{4}1,8,1,8,1,8,1,8,1,8,1,8,1,8,1,8,1,8,1,8,1,8,1,8,1,8,1,8,1,8,1,8,
1,8,1,8,1,8,1,8,1,8,1,8,1,8,1,8,1,8,1,8,1,8,1,8,1,8,1,8,1,8,1,8,E
&inote_5=(165)
{4}
7h[1:1]/4h[4:3],,,,
2h[2:1],,5h[2:1],,
{16}3,4,5>5[1:1]*<5[1:1],,
{4},
,
,
,,,,
,,
{8}
36,36,{16}4,5,4,5,{8}36,{16}4,5,3,6,2,7,
{8}
1,8,17,8,17,{16}18,2,3,4,5,,
{8}
8,1,28,1,28,{16}18,7,6,5,4,,
{8}
1,2,38,5,46,{16}54,6,7,8,1,,
{16}
18,,1,8,2,7,3,6,4b,,,,,,36,,
{16}
78,,8,1,2,3,4,,82,,13,2,3,4,5,,
47,,2,1,2,,7,8,7-4[8:1],,81,,7,,1,,
3h[4:1],,5,6,7,,15,,7h[4:1],,4,3,2,,7,6,
5,,1,,26,,8qq6[8:1]/4qq2[8:1],,,,,,,,36,,
12,,1,8,7,6,5,,17,,86,7,6,5,4,,
25,,7,8,7,,2,1,2-5[8:1],,18,,2,,7,,
6h[4:1],,4,3,2,,84,,2h[4:1],,5,6,7,,2,3,
4,,8,,3v1[8:1]/7,,,,,,7,,6,,5,,
24,,4,5,62,,2,3,48,,37,,26,,1^4[8:1]/5^8[8:1],,
,,,,,,,,,,37,,26,,37,,
2h[2:1],,6,5,4,,6,7,8,,3,,12,,2,1,
3,8,4v1[8:1],,6,,46,,,,2,,3,,4,,
57,,5,4,37,,7,6,51,,26,,37,,4^1[8:1]/8^5[8:1],,
,,,,,,,,,,26,,37,,26,,
7h[2:1],,3,4,5,,3,2,1,,6,,78,,7,8,
6,1,5v8[8:1],,3,,53,,,,73,,15,,,,
{16}
24,,3,4,3,,7,8,7,,5,6,5,,47,,
12,,1,8,7,6,52,,,,78,,56,,12,,
12,,2,3,4,,1,8,7,,4,3,2,,78,,
16,,{24}2,3,4,5,6,7,{16}8,,28,,{24}7,6,5,4,3,2,{16}1,,
75,,6,5,6,,2,1,2,,4,3,4,,25,,
78,,8,1,2,3,47,,,,12,,34,,78,,
78,,7,6,5,,8,1,2,,1,8,7,,4b>5[1:1]/5b<4[1:1],,
{1},,
{48}18,27,36,45,,,{8},,,
{16}1b,2,3,4,8,7,6,5,2,3,4,5,7,6,5,4,
{8}
1,,{24}15,26,37,{8}4p8[8:1]/8p4[8:1],,4<8[4:1]/8>4[4:1],,4b/8b,
,,,,,{24}4,3,2,8,7,6,3,2,1,
{8}5,,{24}52,63,74,{8}8/5-2[8:1],,5/1qq6[8:3],,1,
,,,,,36,{24}3,2,1,8,7,6,
{8}57,{24}7,8,1,2,3,4,{8}52,,17,,{24}1,2,3,
{8}4,27,38,{16}2,6,2,,78,,16,,7,3,
7,,37,26,1/5-1[8:1]*-1[8:1],,37,,5,,,,{48}18,27,36,45,,,{8},
{16}8b,7,6,5,1,2,3,4,7,6,5,4,2,3,4,5,
{8}
8,,{24}84,73,62,{8}5q1[8:1]/1q5[8:1],,1<5[4:1]/5>1[4:1],,1b/5b,
,,,,,{24}5,6,7,1,2,3,6,7,8,
{8}
4,,{24}74,63,52,{8}4-7[8:1]/1,,4,,18,
{16}2,3,4,5,3,4,5,6,4,5,6,7,5,6,7,8,
{8}1>6[8:3]/3,,,,,1,,2,
3,{24}8,7,6,{8}5,17,{24}1,2,3,{8}4,82,{24}81,72,63,
{8}54,27,18,27,{48}18,27,36,45,,,{8},27,,
{16}
17,,1,2,
3,,85,,
8,7,6,,
{24}1,2,3,4,,,{16}
82,,8,7,
6,,14,,
1,2,3,,
{24}8,7,6,5,,,{16}
17,,1,2,
3,,15,,
2,3,4,,
{24}16,2,3,4,,,{16}
82,,8,7,
6,,84,,
7,6,5,,
{24}83,7,6,5,,,
{16}
1,2,3,4,8,7,6,5,1,2,3,4,{24}8,7,6,5,,,{16}
1,2,3,42,3,4,53,4,5,64,5,6,{24}2,3,4,5,,,{16}
8,7,6,57,6,5,46,5,4,35,4,3,{24}7,6,5,4,,,
{16}16,2,3,4,2,3,4,5,{24}3,4,5,6,7,8,
1,2,3,{32}4,5,6,7,
{8}
8b,6,{16}1,,7,1,7,,18,,18,27,36,,
8,,3,,8,,2,1,2,,18,,18,27,36,,
18,,56,,34,,24,35,46,,27,,75,64,53,,
18,,34,,56,,7,3,7,,45,,36,,27,,
{48}18,27,36,45,,,{8},27,,{48}18,27,36,4b/5b,,,{8},27,,
{48}18,27,3b/6b,4b/5b,,,{8},27,,{48}18,2b/7b,3b/6b,4b/5b,,,{8},27,,
{48}1b/8b,2b/7b,3b/6b,4b-7[8:1]/5b-2[8:1],,,{8},,,,,,,
{24}1,8,1,8,1,8,1,8,1,8,1,8,1,8,1,8,1,8,2,7,3,6,4,5,
{4}
,,,,,,,,
,,,,,,,,E
