&title=.cooooffee
&artist=ValeraP
&first=0
&des=.diiiiffeer
&lv_5=13
&inote_5=(106)
{8}24,,,,35,,
{16}6pp5[2:1],6,,6b,,,,,,,,,,,,,
{16}7h[8:1],,,,46,,,,,,4h[8:1],,6,,,,5>5[16:13],4,,4bh[16:5]/5b,,,,,,,,,
{8}3qq4[16:3],4,3,,
{16}6,,,B2,,,3h[8:1],,5,,,,2>4[24:1],4,,2b,,
{48},6x,,6x,,,,3x,,3x,,,,5x,,3x,,,,3x,,5x,,,,4x,,6x,,,,6x,,
{48}4x,,,,,,
{16}6hx[16:1],,46,,,,,,5h[8:1],,3,,3,,,5,5,,Cf,,,,,,,B3,,
{24},3x,4x,,
{48}3x,,,,,,,
{16},,1/6b,,,,,,2,,7,,2,,1-4b[24:1],1<5[2:1],,1b,,,B4,,,E3f,,,
{24}2x,,2x,,,3,
{16},,5,3,35,,,,,4,6,,4>4[1:1],,,,
{48}4x,,,,5x,,,,,5x,,,,,,,,,,,,,,,
{16}6>2b[2:1],,,,A1,,A8,,A7,,A6,,A5f,,,,,,
{16}6,,6,,3,,
{48}34,,,,34,,,,,35,,,,,,,
{24}3,5,,6,4,,3,4,,6,5,,3,5,,6,4,,3,4,,,
{16}25,,,,,,7,,4,,,,
{24}7<4[24:1],,
{48}4qq4pp4[1:1],,,,,
{16}7b,,,,,8,,,,8,,7,,6,,5,,
{16}6<1[12:1],,,,2-8[12:1]/6>4[12:1],,,,2>4[12:1]/6,
{48},,,,,,,,,2,,,,5qq5pp5[4:3],,,,,,35,,
{16},,4,,3,,2,,1,,,,1-4[12:1],,1,,
{16}1>4-8[3:1]/5-7[16:1],,,,51,,8,,7<4[12:1],,,,
{48}7-1[12:1],,,,3,,,,,,7x,,3x-5[12:1],,,,,,
{16}7,,3-1[12:1],,7,,3<5[12:1],,7,,3,,7,,4b/7b,,,,
{48}3b/6b,,,,,,,,,,2b/5b,,,,,,,,,,,,,,6b<2<6[4:3]/3b,,,,,,,,,,46,,
{8},4,4,3,2,,4-2[12:1]*-6[12:1],,A4,,,,
{4}4,,C,,C,,
{16}C/4,,
{16}3,3,,
{48},6,,4,,,,6,,4,,,,,,
{16}6,6,,4h[8:1],,C,4,,6,6,,
{48},5,,3,,,,5,,3,,,,,,
{16}2,2,,3,3,5,35,,
{16}6,6,,
{48},3,,5,,,,3,,5,,,,,,
{16}3,3,,5h[8:1],,C,5,
{48},5x,,5,,,,3x,,3,,,,6x,,6,,,,4x,,4,,,,,,
{8}B7,B8,B1,
{16}28,,
{16}6,6,,
{48},3,,5,,,,3,,5,,,,,,
{16}2,2,,8h[8:1],,C,5,,3,3,,
{48},4,,6,,,,4,,6,,,,,,
{16}7,7,,4,6,4,74,,
{16}3,3,,
{48},6,,4,,,,6,,4,,,,,,
{16}7,7,,1h[8:1],,C,4,,6,6,,
{48},5,,3,,,,5,,3,,,,,,
{16}2,2,,5,3,5,
{16}2x>4[12:1]/5h[4:1],,,,2x-8[12:1],,5,,2x-4[12:1]/6,,7,,2x/7<5pp5[2:1],7,,7h,
{2},
{48},,,,3h,,3h,,,,4h,,4h,,,,5h,,5h,,,,6x>4qq4[3:1],,
{16}6h[6:1],,,,,,,,,
{48},6h,,6h,,,,5h,,5h,,,,4h,,4h,,,,3xqq3pp3[3:1],,
{8}3h[6:1],,,,
{48},,6,,5,,,,5,,4,,,,4,,3,,,,3,,2,,3x,,,,,,
{16},,7h[8:1],,,3h[8:1],,,,,
{48}2q4[4:1],,,,4,,,,,,2,,4x>1qq3[2:1],,,,,,
{16}6,,5-7[12:1],,6,,5>5>5[1:1],,,,5x,,
{32},,,,5x>5b[2:1],4x,3x,2xh[2:1],,,,,
{4},,
{16}2h[4:1],,,,4,,,
{48},3xqq4[4:1]/5xpp4[4:1],,,,,,4x/6x,,,,,,
{48}35,,
{4},,
{16}3>8[12:1],,,,7-1[12:1]/3<5[12:1],,,,7<5[12:1]/3,
{48},,,,,,,,,7,,,,4pp4qq4[4:3],,,,,,64,,
{16},,5,,6,,7,,8,,,,8-5[12:1],,8,,
{16}8<5-1[3:1]/4-2[16:1],,,,48,,1,,2>5[12:1],,,,
{48}2-8[12:1],,,,6,,,,,,2x,,6x-4[12:1],,,,,,
{16}2,,6-8[12:1],,2,,6>4[12:1],,2,,6,,2,,5b/2b,,,,
{48}6b/3b,,,,,,,,,,7b/4b,,,,,,,,,,,,,,3b>7>3[4:3]/6b,,,,,,,,,,53,,
{8},5,5,6,7,,5-7[12:1]*-3[12:1],,A5,,,,Cf,,,,
{1}Ch[8:7],
{8}75,,,,64,,
{16}3qq4[2:1],3,,3b,,,,,,,,,,,,,
{16}2h[8:1],,,,53,,,,,,5h[8:1],,3,,,,4<4[16:13],5,,5bh[16:5]/4b,,,,,,,,,
{8}6pp5[16:3],5,6,,
{16}3,,,B7,,,6h[8:1],,4,,,,7<5[24:1],5,,7b,,
{48},3x,,3x,,,,6x,,6x,,,,4x,,6x,,,,6x,,4x,,,,5x,,3x,,,,3x,,
{48}5x,,,,,,
{16}3hx[16:1],,53,,,,,,4h[8:1],,6,,6,,4pp4[1:1]b*qq4[1:1]b,4,4,
