&title=Streak
&artist=ARM(IOSYS)
&first=-0.002
&des=wertuiop
&lv_6=13+
&inote_6=(150),,,,,,
{32}1b,,,,,,,{7}2h[280:271],{8}3,4,5,6,7,{10}8,1,,3h[60:43],4,5,{12}6,7,8,1,2,,{14}4h[112:62],5,6,7,8,1,{16}2,3,,5h[144:67],6,7,{18}8,1,2,3,4,,{20}6h[110:43],7,8,1,2,3,{22}4,5,,7h[264:90],8,{24}1<6[75#32:1],2,3,4,5>2[112.5#64:3],6,{4}8b,1/5,
{16}3b,2-7[200#12:1],3-6[200#12:1],,2,3,,3,4b,3,4,3-7[300#8:1],4-8[300#8:1],3,4,,4-1[200#12:1],5-8[200#12:1],,4,5,,5-2[16:1],6-1[300#8:1],7b,6,5,,6-3[200#12:1],7-2[200#12:1],,6,7b,,7-4[200#12:1],8-3[200#12:1],,7,8,,8b,1,,8-5[200#12:1],1-4[200#12:1],,8,1,2h[16:1],3-6[16:1],3/2h[16:1],,3/2h[16:1],3,2b,7-3[16:1]/2b,7/2b,2,7/2b,7/2,2h[16:1],4-7[16:1],4/2h[16:1],,4b,4,,1,8,,8-3[16:1],7-4[300#8:1],6b,7,8,,7-3[200#12:1],6-2[200#12:1],,7,6,,6-2[200#12:1],5-1[200#12:1],,6,5,,5b,4,,4-8[200#12:1],3-7[200#12:1],,4,3,6b,5,4,3,2,1,8,7,3b,4,5,6,7,8,1,2,{32}6b,5,2,1,7,6,3,2,7,8,3,4,6,7,2,3,5b,,,,,,,,{16}1b,,,,{32}1,8-4[80#30:1],7,6,5-8[60#40:1],4-7[92.3077#26:1],,,1,2-6[109.091#22:1],3,4,5-2[75#32:1],6-3[133.333#18:1],,,{4},,{32}8,7-3[80#30:1],6,5,4<7[60#40:1],3<6[92.3077#26:1],,,8,1-5[109.091#22:1],2,3,4>1[75#32:1],5>2[133.333#18:1],,,{4},,{16}8<5[4:1],,4,5,6>3[4:1],,,,4>1[4:1],,8,,6,,4,,6b,,,,2>5[16:1],,2-6[16:1],,2,1-4[16:1],2,7<4[16:1],1,1,7,7,{32}8,1-5[80#30:1],2,3,4-1[60#40:1],5-2[92.3077#26:1],,,8,7-3[109.091#22:1],6,5,4-7[75#32:1],3-6[133.333#18:1],,,{4},,{32}1,2-6[80#30:1],3,4,5>2[60#40:1],6>3[92.3077#26:1],,,1,8-4[109.091#22:1],7,6,5<8[75#32:1],4<7[133.333#18:1],,,{4},,{32}5<8[8:1]/5>2[8:1],6,7,8,1,2,3,4,{4}5b,{32}1<6[8:1]/1>4[8:1],2,3,4,5,6,7,8,{4}1b,1-6[8:1]/1-4[8:1],1b,{12}7-2[225#32:3],3-6[225#32:3],7<4[225#32:3],3>8[225#32:3],7,3,
{32}7,6-3[80#30:1],5,4-7[57.1429#42:1],3-8[85.7143#28:1],2,,,1,2-5[109.091#22:1],3,4-1[70.5882#34:1],5-8[120#20:1],6,,,{4},,{32}8,7<4[80#30:1],6,5<8[57.1429#42:1],4-1[85.7143#28:1],3,,,2,3<6[109.091#22:1],4,5>2[70.5882#34:1],6-1[120#20:1],7,,,{4},,{16}8<5[4:1],,4-1[4:1],6-1[4:1],1>4[4:1],,,,3<6[4:1],,7,,5,,3,,7b,,,,1>4[16:1],,1-5[16:1],,1,8-5[16:1],1,6-1[16:1],8,8,6,6,{32}2,3-6[80#30:1],4,5-2[57.1429#42:1],6-1[85.7143#28:1],7,,,8,7-4[109.091#22:1],6,5-8[70.5882#34:1],4-1[120#20:1],3,,,{4},,{32}1,2>5[80#30:1],3,4>1[57.1429#42:1],5-8[85.7143#28:1],6,,,7,6>3[109.091#22:1],5,4<7[70.5882#34:1],3-8[120#20:1],2,,,{4},,{32}8>3[16:1]/4b,1>4[16:1],2>5[16:1],3<6[16:1],4<7[16:1]/8b,5<8[16:1],6/2b,7,{4}8/4b,{32}1b/5>2[16:1]/5>2[16:1],4>1[16:1]/4>1[16:1],3>8[16:1]/3>8[16:1],2<7[16:1]/2<7[16:1],5b/1<6[16:1]/1<6[16:1],8<5[16:1]/8<5[16:1],7,6,{4}1b/5,4b,{16}5,,4,5,3,6,4b,5,1b,8b,,5b,
{32}4b,3,2,1,8-4[300#8:1],7,6,5,,,,,2b,1,8,7,6-2[300#8:1],5,4,3,,,,,8b,7,6,5,4-8[300#8:1],3,2,1,{8},3,7<4[120#20:1],1-4[120#20:1],{16}8b,7-4[16:1],8b,1>4[16:1],8b,7,8b,1,{16}7b,8-4[300#8:1],6,8,5b,3-8[300#8:1],4,3,5,7-3[300#8:1],6,7,8b,4-7[300#8:1],5,4,1,,,7-3[120#20:1]/3-7[120#20:1],,,5-1[16:1]/1-5[16:1],,7/3,,5/1,,{32}1,8/2,7/3,6/4,5,6,7,8,5b,6>3[16:1],7,8,1,2,3,4,,,,,2b,1>4[16:1],8,7,6,5,4,3,,,,,5b,6<1[16:1],7,8,1,2,3,4,{8},4h[4:1],3-8[120#20:1],5-8[120#20:1],{16}4,3-7[16:1],4,5-1[16:1],3h[16:1],,5h[16:1],,{8}8-4[75#32:1],2-6[81.8182#88:3],6-2[64.2857#112:3],4-8[100#24:1],{12}8>3[225#32:3],2,8,4<7[225#32:3],6,4,{32}8b,7/1,6/2,5/3,4,3,2/6,1,8,7,6,5,4/8,3,2,1,8/4,7,6,5,4,3,2,1,{16}8b,3,6,5,8<5[16:1]/8-3[16:1],,,,8-5[16:1]/8>3[16:1],,4,,8-4[200#12:1],,,8,,,5,3,1-6[16:1]/1>4[16:1],,,,1-5[16:1]/1-4[16:1],,5,,1,7,7<4[200#12:1],1<6[200#12:1],,7,1,,3-7[16:1]/3>8[16:1],,,,3-6[16:1]/3<6[16:1],,2,,3,1-5[16:1]/1-4[16:1],,1,,1,8,7,6<1[16:1]/6>3[16:1],,,,6-2[16:1]/6-3[16:1],,2,,6,7,8-4[16:1],1-5[16:1],,7,8,1,2>5[16:1]/2-7[16:1],,,,2-5[16:1]/2<7[16:1],,6,,2-6[200#12:1],,,2,,,5,7,1-4[16:1]/1<6[16:1],,,,1-5[16:1]/1-6[16:1],,5,,1,3,3<6[200#12:1],1>4[200#12:1],,3,1,,7-3[16:1]/7>2[16:1],,,,7-4[16:1]/7<4[16:1],,8,,7,1-5[16:1]/1-6[16:1],,1,,1,2,3,4>1[16:1]/4<7[16:1],,,,4-8[16:1]/4-7[16:1],,8>3[100#24:1],,4<7[16:1],3,2,1,4/8,,,,
{32}8b,1-4[80#30:1],2,3,4-7[85.7143#28:1],5<8[63.1579#38:1],,,6b,7-2[109.091#22:1],8,1,2-5[120#20:1],3<6[80#30:1],,,{4},,{32}1b,8<5[80#30:1],7,6,5>2[85.7143#28:1],4-1[63.1579#38:1],,,3b,2<7[109.091#22:1],1,8,7-4[120#20:1],6-2[80#30:1],,,{4},{16},,,8<5[200#12:1],1-5[200#12:1],,8,1,,6-2[200#12:1],5-1[200#12:1],,6,5,,2-6[200#12:1],1<6[200#12:1],,2,1,,7-3[200#12:1],6>3[200#12:1],,7,6,,3>8[200#12:1],4-8[200#12:1],,3,4,,1,8,,{32}8b,7/1,6/2,5/3,4,3,{28}2,1/5,8/4,7/3,6/2,5/1,{24}4/8,7,6,1/5,8/4,7/3,{20}6/2,5/1,4/8,3,2,1<6[4:1]/5>2[4:1],{16}8/4,7/3,6/2,5/1,
