&title=操リ人形ノ舞ニ意味ハ有ルカ
&artist=LYRi_WHiTE × HiHUMi
&first=0.04
&des=何意味
&des_5=何意味
&lv_5=14
&inote_5=(160){4},{1},,,{4},,,{48}7/2,
6/3,{24}5/4,{4},,{16},{24},{16}4,,,,4,
{8}5,{16}4,5,,4,5,4,5,4,5,4,5,4,5,4,
5,4,5,4,5,4,5,4,{12}5,4,5,4,,5,
,4h[3:2]`5,{4},,{16},{64},{192},{32}5,6,7,8,1,2,3,4,
{8}5,6h[8:1],{16},4h[8:1],,,7h[8:1],,,3h[8:1],,,{8}8h[8:1]/2h[8:1],
,7h[8:1],{16},1h[8:1],,,6h[8:1],,,2h[8:1],,,,,,,{8}5/6h[8:1],
{16},5/4h[8:1],,,6/7h[8:1],,,4/3h[8:1],,,{8}2h[8:1]/8h[8:1],
{16},,1,7,4,6,2,5,1,6,3,8,2,7,4,5,
,,6,6,,4,{8}4,{16}7,7,,3,{8}3,{16}8/2h[8:1],8,
,,1,1,,8,{8}8,{16}2v5[16:1],2,,7,,,,,,,6/5,
6,,4/5,{8}4,{16}7/6,7,,3/4,{8}3,{16}8/2,8/2,
,,8,2,5,3,7,4,8,3,6,1,7,2,5,4,
,,{8}3<6[4:1],{16},5<8[4:1],,,7>1[8:1],,,5,,,{8}5,
,6>3[4:1],{16},4>1[4:1],,,2<8[8:1],,,4h[16:3],,,,,,,{8}4<8[16:3],
{16},8>4[16:3],,,4<8[16:3],,,8h[4:1],,,,,,,1,
8,3,6,2,7,3,4,5,6,3,4,5,6,
{2}2b-6[16:1],{16}7/5,,,2/4,,,{8}5/8,
{16}8/1,1/8,,8z4[8:1]/1s5[8:1],,8/1,,8/1,,,,,{8}3,2,
1h[4:1],{16},,,,8,8,7/6,,,2/3,,,{8}5/7,
{4}6h[4:1],{16}2,2,,6>3[8:1]/3v6[8:1],,,,,,,,,{1}5h[4:7],
{4}6-8[16:1],6,2-4[16:1],2,
4h[4:5],{16}5,6,{8}7h[8:3],,,,,{4}8-5[16:1],
{8}8,3,{16},2,{8}2,1v6[16:1]*pp4[4:3],8,
{1}1,
{2}5h[8:3]/3h[8:3],{4}5v8[16:1]/3v8[16:1],5/3,
{16}7/1,,,6/5,{8}6,1,{16}2/8,,,3/4,{8}3,8,
7h[4:1]/3h[4:1],,,6h[8:1]/2h[8:1],,2/6,1/5,8/4,
{16}2,3,4,1,2,3,8,1,2,7,8,1,2,3,4,5,
{8}6/2,7-2[16:1]/3-6[16:1],6/2,3b/7b,,5/1,4/8,3/7,
2/6,6/2,{16}1,8h[16:1],,2,{8}1h[16:1],{16}3,2h[16:1],,,{8}4,
5-7[16:1],4-2[16:1],5,4,,8,7/3,2/6,
{2}5-1[16:1]/1-5[16:1],{8}2b-5[16:1],,,7b-3[16:1],
,,{4}1b-5[16:1],8b-4[16:1],1bw5[16:1],
{8}1b,{16},,,,6,7,8b-3[16:1],,,2b-6[16:1],,,{8}7b-4[16:1],
1,1b-5[16:1],{16},6b-2[16:1],,,{4}3b-5[16:1],{16}8b/3,7b,{8}6b,
{16}4,5,3,6,2,7,1,7,2,6,3,7,2-6[16:1],8,{8}1-5[16:1],
2-4[16:1],1>7[4:1],2,1,,,3,2,
{16}1b,7,3,6,1,8,4,6,2,8,3,5,2,7,4,5,
3b,4,5,6,2,3,4,5,1,2,3,4,8,1,2,3,
{8}8b,{24}1,2,3,{8}4,8b/5b,{24}4,3,2,1,,,{8}8,7,
6/5,4/3,6p1[4:1]/3q8[4:1],{16}6/3,6/3,,,,,,,,,{8}8/1,
{16}7,6,5,7,6,5,2,3,4,2,3,4,5,6,
{24}7,8,1,2,3,4,{4}5>3[16:1]/6-3[16:1],6b<8[16:1]/5b-8[16:1],6b/5b,
{16}1,2,3,4,5/2,3,4,5,6/3,4,5,6,7/4,5,6,7,
8/1,,,1/8,,1/8,,8/1,{4}1h[8:1]/8h[8:3],{32}1b,2,3,4,{8}5h,
8b/4b,1/2,{16}6,8h[16:1],,7,{8}1h[16:1],{16}8,2h[16:1],,1,{8}3h[16:1],
4b/5b,{16}6,8h[16:1],,5,{8}1h[16:1],{16}4b,2h[16:1],,4,3,6,{8}5,
1b/5b,8/7,{16}3,1h[16:1],,2,{8}8h[16:1],{16}1,7h[16:1],,8,{8}6h[16:1],
5b/4b,{16}3,1h[16:1],,4,{8}8h[16:1],{16}5b,7h[16:1],,5,6,3,{8}4,
2,1-5[16:1],{16},8-4[16:1],,,2-6[16:1],,,7-3[16:1],,,,,,,{8}4-8[16:1],
{16},5-1[16:1],,,3-1[16:1],,,6-8[16:1],,,,,{4}1h[1:1],
8,{16}8,,,8,,,{8}8,
{1}8,
{16}4/3h[4:3],,,4,,,{8}4,5,5,5,5,
{16}6h[4:3],,,5,,,{8}4,{2}4,
{16}3h[4:3],,,4,,,{8}5,{4}5,6,
5/4,6/3,{2}7/2,
8`7,1`2,
2/7,8/1,
{8}1,2,{12}3,4,5,{16}6,7,8,1,{32}2,3,4,5,6,7,{16}8,
1,1,,8/7,,2/1,,1/8,{4}8z4[8:1]/1s5[8:1],8b/1b,
{16}3/6,,,3,{8}4/2,1,{16}7,8,7,6,{8}7-5[16:1],4,
{16}7-1[16:1],,,2,{8}7-3[16:1],3,{4}7,{8}4,5,
{16}7h[4:1],,,6,{8}6,5/4,2h[8:1],3,{16}2-8[16:1],3,2,3,
{4}2b-6[16:1]*-4[16:1],2bV84[8:1],2b,{8}6,3,
{16}6b,5,7,7,3,4,2,2,6,4,7,2,5,3,6,1,
{8}2/5,{24}2/5,6/3,7/4,{8}8/5,{24}7/4,6/3,5/2,{4}1/4h[8:1],{8}8,{16}5,4,
{8}5b-1[16:1],5b,{16},,3,2,1b>4[16:1],,,7b<4[16:1],,,{8}1b,
2,2,{16}3/8,3/8,,4,7,4,7,4,{32}7,8,1,2,3,4,5,6,
{16}7-4[16:1],,,3,{4}7/3,{16}2-5[16:1],,,7,{4}2/7,
{8}7/4,{24}7/4,3/6,2/5,{8}1/4,{24}2/5,3/6,4/7,{4}8/5h[8:1],{8}4,3,
{16}2h[4:1],,,3,{8}3,4/5,6h[8:1],5,{16}6-4[16:1],5,6,7,
{4}6b-2[16:1]*-8[16:1],6b>2[8:1],6b,{8}1,8,
{16}1b,7,2,5,3,7,4,8,3,6,1,7,2,5,3,6,
1b,7,3,6,1h[4:1],4h[16:1],,,{8}5<8[32:3],5,{32}1,2,3,4,1,2,3,4,
{8}5b/1h[4:1],{16},,,,4/2,4/2,5,,,3,,,{8}6,
{16}7/5,,,2/4,,,{8}5/8,8/1,1/8,{32}1,2,3,4,5,6,7,8,
{4}1h[8:1],{24}1,8,1,8,1,8,1,8,1,8,1,8,1,8,1,8,1,8,
{8}1,7h[16:1]/6h[16:1],{16},4/3,{8}4h[16:1]/3h[16:1],{16}6,6,7,5,3,3,2,4,
3,5,4,6,3,5,2,4,3,7,4,6,3,3,5,5,
{8}4,{24}4/5,6/3,7/2,{4}1-4[16:1]/8-5[16:1],{24},,,,,,4,3,2,5,6,7,
{8}1/2,{16}7,7/8,,2/4,,5/7,,6,5,6,3,4,{8}3,
5/6,{16}3,3/4,,6/8,,1/3,,2,1,2,7,8,{8}7,
{16}1b,7,2,6,3,7,4,8,2b,6,1,7b,2,5,3b,6,
2b,1,3,7b,6,8,3b,2,4,6b,{8}5,{24}4/7,3/6,2/5,1/4h[16:1],{48},,,,{16}2h[16:3],
,,3h[16:3],,,{8}4,{16}8b/7h[16:3],,,6h[16:3],,,{8}5,
{16}2,4,1,1,7,5,8,8,{32}1,2,3,4,1,2,3,4,8,7,6,5,8,7,6,5,
{4}8w4[16:1],8bqq4[1:3]*pp4[1:3],{1},,,{4},,,{16},3h,
{8}4h,
E
