&title=極光
&artist=重永亮介
&first=0
&des=葛城リーリヤ
&lv_5=14
&inote_5=(190)
{1},5<4[4:7]/1^4b[8:7],,2x-6[4:5],,
{8}4/7-5[4:2],,4,,4,,4,,3-5[2:1],,6,,6,,6,,6/5b,5,7,5b/4,5,2,4/3b,3,5/2b,,6,8b/4,,3
,5/1b,,6xh[8:1],5xh[8:1],4xh[8:1],2xh[8:1],1xh[8:1],8xh[8:1],6xh[8:1],5xh[8:1],{6}4,4,4,35,71,
5w1[1:1]/6,7b/3b,,,,,,
{24},,,,,,,,,,
A3,D4,A4,,,,,,,,,,A7,D7,A6,,,,,,,,,1h[32:1],,,,,,,,,2,,,,,,,,,,,,,,,,,,,,,,,,,,,{16}6x,5x,4x>5[4:7],,,,,,,,,,,,
{24},,,,,,4p5[4:3],,,,,,,,,,,,,,,,,,,,,,,,,,,,,,
{16},,4,4,6b-2[8:1],,,,,,,,3,,3,,3qq4[2:1],,3,,37,,,,,,,,6-4[8:1],,,,6,,8-2[8:1],,,,8,,7h[4:1],,,,2-4[8:1],,,,2,,8-6[8:1],,,,8,,3h[4:1],,,,5<1[8:3],,,,2,,1>1[8:7],,,,4,,5,,,,C,,,,1>5[8:3],,,,4<6[8:2],,,,,,,,3-7b[8:1],,,,3,,1^6[8:1],,,,1,,2h[4:1],,,,4-8b[8:1],,,,4,,1-5[8:1],,,,1,,7h[4:1],,,,3>8[8:1],,,,3,,7^4[8:1],,,,7,,2<6[4:1],,,,5h[2:1],,,,,,,,
{12}1x,2x,3x,8x,7x,6x,5x/1b-5b[8:1],,,,,,
{8}7,3h[8:1],8,3h[8:1],6,3h[8:1],8p4pp6[8:3],3h[8:1],,,,,2,5h[8:1],8,5h[8:1],2,5h[8:1],8>5q2[2:1],5h[8:1],,,,,7h[32:1],7h[32:1],7h[32:1]/3,,2-5[8:1],,26,,8-5[8:1],4,8,2,4-7[8:1],,3,,5-1[8:1],,6,,4-7[8:1],,8-3[8:1],,5-1[8:1],,1,,37,{16}4,6,4,6,4,6,4,,4,,7-3b[8:1],,7,,2bs6[1:2],,,,,,,,,,,,,,,,,,,,,,,,,,,,,,,,,,,,,,,,,,,,,,,,
18,,,27,,,7,,4,5,6,7,8,1,2,3,4/8b-4[8:1],,,,2-6[8:1],,,,5,,5h[4:1],,,,1-5[8:1],,1,,7^2[8:1],,,,4-8[8:1],,4,,7^2[8:1],,,,4w8[8:1],,4,,Cf,,,,5w1[8:1],,5,,Cf,,,,,,3,7,3,7,3,7,3,7,3,7,3,7,3,7,3,7,3^1-5[4:1],,,,5^7-3[4:1],,,,,,,,,,,,48,,5/6h[8:3],,,,,,
{24}7bx-3b[8:1],8bx,1bx,2bx<3[8:3],,,7,,,2,,,,,,,,,
{16}1<4b[8:2],,8,,71,,,,8,,7,,6/2-6[8:1],,,,8b/2b,,,,{24}1-5b[8:1],,,7>6[8:3],,,1,,,7,,,,,,,,,
{16}8>5b[8:2],,1,,28,,,,1,,2,,3/7-4[8:1],,,,7/1b,,,,28,,3,7,3,7,3,7,3-1[8:1],,,,6,,,,4-8[8:1],,4,,3,,,,5-2[8:1],,,,6,,,,4^7[8:1],,1^4b[8:1],,4qq2b[8:2],,1,,,,,,7b,,,,3-5[8:1],,7-4b[8:1],,3,,7,,,,1,,1/B6f,,,,2h[8:1],,7>6[8:3],3,7,3,7b,,,,,,8>5b[4:1],,1,,28,,,,1,,2,,3/7-3[8:1],,,,1b/7,,,,8,,1-5[8:1],,2,,3^8[8:1]/1,,,,3,,7^4[8:1],,,,7,,3w7[8:1],,,,3b,,,,1,,3b/7b,,,,1^4[8:1],,,,1/8^5[8:1],,,,1/8b,,,,8-5[8:1],,,,78,,,,1-5[8:1],,,,13,,,,2-6[8:1],,4,4,2,,,,1^4[8:1],,,,1b/8,,,,1-5[8:1],,,,21,,,,8-3[8:1],,,,86,,,,7-3[8:1],,4,4,7,,,,5h[4:1],,,,1b,,4,7,3,6,2,5,1-5[8:1],,7,,1b/7,,,,26,,26,,,,,,
{24}1b/7b,2x/6x,3x/5x,4x-1[9:1],,,,,,,,,7bh[1:1],,,,,,,,,,,,,,,,,,,,,,,,
3x,4x,,,,,,,,6x,5x,,,,,3,,,34,,,,,,2-5[8:1],,,1,,,2,,,7-3[8:1],,,8,,,7,,,1,,,1,,,,,,6-1[8:1],,,2,,,6,,,4b-1[8:1],,,,,,4b/7b-3[1:2],,,,,,,,,,,,,,,,,,,,,,,,,,,,,,,,,,,,,,,,,,,,,,,,,,,,,,,,,,,,,,,,,,,,,,,,,,,,B7,C,B3,,,,,,,,,,,,,,,,,,,,,,,,
{16}E6/A5f/E5/B5/D5/D6,,,,,,1,1,6,7,8,1,2,3,4,5,62,,,,4pp4[4:1]*qq4[4:1]/8,,,,,,,,,,,,7h[4:1],,,,A3,A2,A1,A8,A7,A6,A5,,E8,B8,B1,E2,E6,B5,B4,E4,,,,,6h[8:1],,2,7,2,7,2,7,2qq7[2:1],,,,6h[8:1],,,,5h[8:1],,,,4h[8:1],,,,58,,,,16,,,,27,,,,38,,,,6pp1[2:1]/4,,,,5h[8:1],,,,4h[8:1],,,,3h[8:1],,,,28,,,,37,,,,46,,,,5,,,,17,,2,6,2,6,2,6,2,6,2,6,2,6,2,6,2,6,2,6,2,6,2,6,2,6,2,6,2b-5[8:1],,,,2b/5,6,7-3[8:1],,,,7b/3,2,1-4[8:1],,,,1b/4,5,6-2[8:1],,,,6b/2,3,4^1[8:1],,,,4/8bw4[8:1],7,6,,8bpp7[4:3],,,,,,,,,,,,,,,,,,,,3h[8:1],,7h[8:1],,1h[8:1],,5h[8:1],,8,,8h[24:8],,,,,,
{24}1bx/5bx,2bx/6bx,3bx/7bx,4bx/8bx,,,,,,,,,,,,,,,,,,,,,{16}3b/7b,,37,,37,,37,,3b/7b,,37,,7>5b[1:1]/3,,3/7,,,,,,,,,,,,,,,,,,1b<3[8:3],,,2b,
{32}D1,A8,D8,A7,D7,A6,D6,A5,D5f,A4,D4,,,,,,,,,,,,,,
{16}3-1[8:1],,,,63,,,,4-8[8:1],,4,,34,,,,5-2[8:1],,,,65,,,,4-7[8:1],,1-4b[8:1],,4z8b[4:1],,1,,,,,,7b,,,,1^4[8:1],,5^8b[8:1],,1,,5,,,,2,,2/D7f,,,,3,7,3,7,3,7,3,7,2,,1,,78,,6,,35,,2,,18,,7,,4-1[8:1],,4,,6,,6,,5-8[8:1],,5,,3,,3,,4,,4,,17,,5,,3,,3,,28,,6,,3-8[8:1],,3,,7-4[8:1],,7,,1,,1,,2-5[8:1]/8-4[8:1],,28,,2b/8b,,,,1-5[8:1],,,,17,,,,8-4[8:1]/2-5[8:1],,,,28,,,,7-3[8:1],,2,2,7,,,,1-5[8:1]/7-4[8:1],,,,1b/7b,,,,8-4[8:1],,,,82,,,,1-5[8:1]/7-4[8:1],,,,71,,,,2-6[8:1],,7,7,2,,,,1-3[8:1]/8-3[8:1],,,,1-5[8:1]/8b,,,,1b-3[8:1]/7-3[8:1],,,,1<3[4:1]/7b,,,,1b,,,,8,,8,,,,,,,,,,,,1,8,27,,3,3,6,4,5,2,8-4[8:1],1,7,,7/8b,,,,5/3b,,3,,7,,4b/2,,4,,1,,5b/7,,5,,8,,6b/4,,6,,1,,1-5[8:1],,,,2/1b,,,,7-3[8:1],,7,,5b-2[8:1],,5,,7-4[8:1],,7,,5b-1[8:1],,5,,7,,6,6,2,2,4,4,8q4[32:3],,5q2[6:1]*^8[8:1],,8b,,5b
,
