&title=うたかたのせかいで
&artist=DJ Raisei vs Setca. feat.nayuta
&first=0.07
&des=HL
&lv_5=14+
&inote_5=(216)
{1},,
{32}8,1,{16}8,27,36,
{4}4p7[4:3]/5,,,7<4[4:3],,,1>2v3<4[4:3],,,7,6,5h[2:1],,,2,
{4}8p3[4:3]/1,,,,2pp5[4:4],,,,6qq1[4:4],,2,2-5b[4:1],2b,,37,28,
{8}1b,,3,4,3,,26,,8,,6,5,6,,73,,
1-5[4:1],,1,8,7,,7,,5,,1,2,53,,2,,
{16}
7x/8x,,7x/8x,6,5,,35,,1,,1,8,7,1,2,3,
4x/5x,,4x/5x,6,7,,12,,4,,6,4,6,,35,,
{6}2-6[8:1],1,8,4>1[8:1],5,6,
{8}8-5[8:1],8,7-4[8:1],7,8>3[8:1],8,7q1[4:6],7,
{8}1b<7q5b[4:5],,,,,,,,,,,,,{24}4x/8x,3x/7x,2x/6x,{8}1x/5x,,
{8}34,2,18,7,56,4,56,7,65,7,81,2,43,5,43,2,
{8}1b/8b,1b/8b,1b/8b,7,56,4,23,1,23,4,{16}5v2[8:1],,,7,5v8[8:1],,6,,,,,,
{12}2,3,4,5-1[8:1],,8-3[8:1],,8,,,4,,
8,,8,7,6,,34,,3,,Cf,,
{8}1v4[8:1]/5v8[8:1],,,,3v1[8:1]/7v5[8:1],,,,
2>5[8:1]/6<1[8:1],,26,,73,26,15,,
{8}65,7,81,2,43,5,43,2,34,2,18,7,56,4,56,7,
{8}E7f/B7/B6,A1/D2/E2f,B3/B4/E4f,7,56,4,23,1,78,6,
{16}5>2[8:1],,7,6,5xv8[8:1],,7,6,,,7,6,
{16}E1,E2,E3,E4,A7,D8,A8,D1,E5,E6,E7,E8,A3,D4,A4,D5,
{16}A2,D3,D8,A7,D4,A4,A6,D6,A2,D3,D8,A7,D4,A4,A6,D6,
{16}3,2,1,8,5,6,7,8,4,5,6,7,3,4,5,6,
{16}7/8-3[8:1],,3-5[8:1],,,,,,1-6[8:1],,6-4[8:1],,,,,,
{32}Cf/A1,D2,A2,D3,A3,,,,,,,,Cf/A3,D4,A4,D5,A5,,,,,,,,
{8}7-3[4:1],,,,,,2-6b[4:1],,,,3h[8:1],5-1[4:1],3,
{8}5,2h[2:1],,,,3h[2:1],,,,4h[2:1],,,,
{32}Cf/A8,D8,A7,D7,A6,,,,,,,,Cf/A6,D6,A5,D5,A4,,,,,,,,,,,,,,,,
{32}Cf/A5,D6,A6,D7,A7,,,,,,,,Cf/A7,D8,A8,D1,A1,,,,,,,,,,,,,,,,
{32}2b,4h,,,,2b,4h,,,,2b,4h,,,,,
{32}7b,5h,,,,7b,5h,,,,7b,5h,,,,,
{16}2,5,3,6,4,7,4,8,4,8,4,8,4-6-3-7-2-8b[4:6],8,4,8,
{1},{8},,,,,,Cfh[16:1],,
{8}3-5[8:1],,6-4[8:1],,2-5[8:1],,8-3[8:1],,
{8}6-1[8:1],,4-7[8:1],,1-5[8:1],,7x-2[8:1],,
{8}3-8[8:1],3,4-7[8:1],4,1>5[4:1],,5<1[4:1],,A3,A4,A5,A6,
{8}1-5[8:1],,8/1b,,
{8}4-1[8:1],,4-7[8:1],,4>1[8:1],,4<7[8:1],,
{8}1qq4[16:10],,8bh,,1x-5b[8:1],,,,
{8}36,3,27,2,1-3[8:1]/8-6[8:1],,1b/8b,,
{16}4,5,4,5,2,1,2,1,3-7[8:1],4,3,4,3,,Cf,,
{32},,,,7x,6x/8x,1x/5x,2x/4x,
{8}3xp6[4:1],,6>5-2[4:1],,2<7[4:1],,7v6-3[8:5],,,,7x-3b[8:1],,,,
{8}15,5,26,6,
{16}7,8,1,2,3,4,5,6,
{16}2,3,4,5,6,7,8,1,
{8}2w6[8:1],,2b,,
{8}4-2-6[4:1]/8,,,8-6-2[4:1],,,1>4[8:1],,
{8}5-7[8:1],,5-2[8:1],,5w1[8:1],,5,,
{16}2,,2,3,4,,4/5b,,7,,7,6,5,,4b/5,,
{16}45,3,2,1,8,7,6,5,1,2,3,4,5,6,7,8,
{16}1p4[8:1]*v4[8:1],,,,,,,,
{24}2-5[8:1],5x,2x,5x,2x,,{32},E7,B7,B8,E1,,,,
{16}E4,E3,E2,A8,A7,A6,5,4,3,1,8,7,4,3,2,1,
{16}8-6<5[2:1],,,,,,,,A6,A7,A8,A1,A2,6,7,8,
{16}1v3<6[16:6],,7x,,7x,,,,,,{24}E6,E7,E8,
{8}E1,,
{16}3v6[8:1]*p6[8:1],,,,B3f,,,,
{16}4x,3x,7x,8x,4x,3x,7x,8x,3,2,6,7,3,2,6,7,
{16}2,1,8,7,6,5,4,3,
{8}26,26,4,4,37,37,5,5,
{16}2b,,2,3,,3,4,,7b,,7,6,,6,5,,
{8}4qq7[2:1],,,8-3b[8:1],,,,,
{16}85,4,3,2,7,6,5,4,1,8,7,6,
{8}5>2[8:1],,E4,A2,8h[4:1],,
{16},,2,,4,6,4,6,3,5,3,5,
{8}2,2,{16}8v3[8:1]*v5[8:1],1,{8}8,Cf,,
{32}E8f/A1,D2,A2,D3,A3,,,,,,,,E1f/A3,D4,A4,D5,A5,,,,,,,,B5,B6,B7,B8,,,,,
{32}E6f/A4,D4,A3,D3,A2,,,,,,,,E5f/A2,D2,A1,D1,A8,,,,,,,,B8,B7,B6,B5,,,,,
{6}3x/5x,4,4b/B4,3x/7x,5,5b/B5,
{16}4x,6,4,6,3x,7,3,7,2x,8,2,8,1x,7,1,7,
{24}8,8,8,8,8,8,8,8,8,8,8,8,{8}8,
{32}2h,3h,4h,5h,{8}6h[4:1],,
{8}Ch[8:60],,,,,,,,,,,,,,,,
{2}8qq3[1:1],,,,3qq5[1:1],,,,5pp8[1:1],,,
{8},,1,,
{8}25,,3,4,3,,37,,6,5,47,,6,6,7,7,
{8}1b/8b,,1,8,2,2,1,1,{24}8h,7h,6h,,,,8h,7h,6h,,,,
{8}4,4,7,7,
{8}3bh[4:1],,2,3,2bh[4:1],,4,2,4bh[4:1],,6,4,6bh[4:1],,7,,
{32}3h,4h,,,,1h,2h,,,,6h,5h,,,,,8h,7h,,,,3h,4h,,,,1h,2h,,,,,
{16}2,1,3,8,4,7,5,6,{32}5,4,3,2,1,8,7,6,5,4,3,2,1,8,7,6,
{4}5h[1:4],,,,A5,,,,A4,,,,A3,,,,2h[4:3],,,Cf,
{8}8w4[8:3],,,,,,{32}A4,B4,C,B8,A8,,,,
{8}2>5[8:1],2,8,8,
{8}5-1[8:1],6-8[8:1],5,6,
{8}2v8<7[8:1],2,6,6,
{8}5-1[8:1],4,5,3,
{8}8-3[8:1]*-5[8:1],,A8f,,{24}B6,B5,E5,{8}A4,
{24}B8,B7,E7,{8}A6,
{8}4h[4:1],,7,4,7h[4:1],,1-6[8:1],,
{8}3-8[8:1],,4>1[8:1],,6v3[8:1],,Cf,,
{8}25,3,46,8,24,3,57,6,{16}45,3,25,1,58,1,25,3,4-8[8:1]/5-1[8:1],,,,4b/5b,,,,
{8}6h[8:3],{32}A6,B6,C,B2,A2,,,,,,,,
{16}3,4,3,,6,5,6,,3,4,2,5,3,4,2,5,3-6[8:1],,3,,8,,8,,
{8}8h[4:1]/5,,5,8,5h[4:1],{16}8,7,6,5,4,3,
{16}2h[8:1],,4,3,2,1,8,7,6,5,4,3,2-6[8:1],,,,
{16}1,8,7-4[8:1],,,,3,2,1-5[8:1],,,,6,7,8,,
{8}2,{24}2,3,4,{8}5,1,{24}1,2,3,{8}4,8,,
{16}4,7,4,7,4,6,4,6,4,5,4,5,4,4,4,4,4w8[8:4],,,,,,,,,,,,
{8},,8w4b[2:1],,,,,,,,
{16}48,37,26,15,
{8}8-4[8:1],8,7-3[8:1],7,6-2[8:1],6,5-1[8:1],5,4v7[8:1],4,3v6[8:1],3,2,,
{8}1bv6[8:1]/5bv2[8:1],3b/7b,1b/5b,,3bqq5[2:1],3,8b,8,
{16}5b,6,7,8,{8}1b,4b,8bh[8:1],5-3-1[4:1],,{16},8bx,{12},8,7,
{8}6bh[2:1],5,7b,4,8b,3,12,78,56,{16}3,3h[16:3],,,1,1h[16:3],
{16},,7,7h[16:3],,,
{8}5-7[8:1],4,5,2-4[8:1],1,2,,
{8}56,,86,,{16}2/4,,2h[16:4]/4h[16:4],,,,,,
{24}3,3,3,{16}24,15,
{8}6-2[8:1]/8-4[8:1],,6>3[8:1]/8>3[8:1],,68,,
{8}A6/A7/E7,E1/B1/A1,
{8}3b-6[8:1]*-8[8:1],,3b-1-5[8:1],,7b,7b,
{12}74,36,25,{8}1-4[8:1]/4-7[8:1],,14,,2h/5h,3,
{32}1,8,7,6,,,3,4,5,6,,8,7,6,5,,
{16}2bh,,6,5,6,,1bh,,
{16}3,3,8,8,2,2,7,7,1,2,3,4,58,7,6,5,
{16}34,2,1,8,5,6,7,8,2,2,5,5,3,3,6,6,
{16}4,5,4,5,3,6,3,6,2,7,2,7,1,8,1,8,
{16}1bh,,1,2,3,,3,,7bh,,7,6,5,,5,,
{16}3bh,,3,1,2,,{32}5,4,3,2,
{16}1bh,,2,4,3,,{32}5,4,5,6,
{8}5v6-1[8:4]*v4-1[8:4],,,,,,,,
{8}1h[1:3],,,,,,B7,B6,B5,,B2,B3,,E8,E7,E6,E5,,A1,A2,,A4,,A4,,
{16},,,,,,,,D4,,D5,,D6,,
{8}7h[1:1],,,,E6,,B7,,1h[1:1],,E2,E3,,E5,A5,E6,
{64}2h[4:1],,,,,,,,,,,,,,,,,,3h[4:1],,,,,,,,,,,,,,,,,,4h[4:1],,,,,,,,,,,,,,,,,,,5h[4:1],,,,,,,,,,,,,,,,,,,,,,Ch[8:12],
