&title=Horizon Note
&artist=Endorfin.
&first=0
&lv_5=13
&des=torli
&des_5=torli
&inote_5=
(167){4},,{8}6h/5h,{4},{8}3h,
{4},7h,{8},1V35[8:3],{4},,,{8}6h/5h,
{4},{8}3h,
{4},7h,{8},1b,{4},,,2b-8[8:1],
7-3[8:1],
4qq5[8:3],{8}5,5,,6,,7/3,
,3,2/5,6,{4}7/1-5[8:1],{8}6,6pp4[8:3],
,2-5[8:1],,2,,6,7/4,3,
{4}2/8-4[8:1],1b,2-8[8:1],{8}6,6-4[8:1],
,3-7[8:1],,8,,5,6,3/7,
,3,2/5,6,{4}7/1-4[8:1],{8}5,5pp4[8:3],
,3,{4}4b>5[8:5],,,,{8},4,
{4}4h[4:1],{8}6,6-4[8:1],
,3,,2,,3h[4:1],,5h[4:1],
,4,3,2-5[8:1],,6,{4}6,
{8},6/4,,5/3,,B8,B7,4,
{4}4h[4:1],{8}5,6pp2[8:3],,4,{4}4,
{8},4,3qq5[8:3],5,{4},{8}6,6h[8:3],
{4},{8}4,3,{4}2-5[8:1],{8}8,8-4[8:1],
,2-6[8:1],,8<1[2:1]*p1[2:1],{4},,,{8},6,
{4}6h[4:1],{8}3,3-5[8:1],
,6-2[8:1],,1,,4,3,2/6,
,5pp4[8:3],5,3,{4},{8}2,2-8[8:1],
,7-4[8:1],7,3,{4},{8},5,
{4}5h[4:1],{8}4,3qq5[8:3],{4},{8},6,
{4}6pp2[8:3],{8}4,4h[2:1],{4},{8},6,
{4}7-5[8:1],3,4h[4:1],{8}6,7-3[8:1],
,2-8[8:1],,6-4[8:1],,4,,3,
,2,,2,2,2q5[2:1],,8,
{4}8-4[8:1],8b,{8}2,2q5[2:1],,8,
{4}8-4[8:1],8b,{8}7,7p4[2:1],,1,
{4}1-5[8:1],1b,{8}2,2-5V38[8:3],,7-3[8:1],
,7b,,5,{4}5h[4:1],{8}1,1>5[4:1],
,5<1[4:1],,1,{4},{8}5,5bw1b[8:1],
{4},{8},3,{4}3h[4:1],{8}5,5bV71b[4:1],
,1bV35b[4:1],,5bV71b[4:1],,1b,,5bw1b[8:1],
,{48}5b,Cf,{4},{16},,,{48},{8}7-4[8:1],1,7,
2-5[8:1],8,2,7-3[8:1],,7/2-6-4-1[8:3],2,2/5,
,7,{4}7b,{8},6-1[8:1],7,2-5[8:1],
{4}3,{8}8,8-4[8:1]/2-4[8:1],,8/2,,1-5[8:1]/7-5[8:1],
,1/7,,2b/6b,{4},{8}3-8[8:1],2,
7-3[8:1],6,1,1>5[4:1],,5<1[4:1],,1V35[4:1],
,5V71[4:1],,1>5[4:1],,5w1[8:1],{2},{8}2,
1>4[8:1]/7<4[8:1],,1x/7xv4-6-1[8:5],,2x/7x,
,2x-6[8:1],,{48}2b,Cf,{3},{8}1,7,
2-5[8:1],8,2,7-3[8:1],,7/2-6-4-1[8:3],,2/5,
,7,{4}7b,{8},6-1[8:1],7,2v5[8:1],
{4}3,{8}8,8-4[8:1]/2-4[8:1],,8/2-6[8:1],,2b/6b,
,5,5,5<3[8:3],,4,{4}4h[8:3],
{8},3,2,1<5[4:1],,5>1[4:1],,1V75[4:1],
,5bV31<5>1V75b[4:3],,3bh[8:5],{4},,{8},1w5[8:1],
,1,,8w4[8:1],,8,
,1x,{4}1x>8[4:7]/8x<1[4:7],{1},,{4}4h[8:5],
{16}E8,B7,B6,B5,
{8}B4,C,,8V64[2:1],{1},{4}5h[8:7],
{16}B1,B2,B3,B4,
{8}B5,C,,1V35[2:1],{1},{4}4h[8:5],
{16}E8,B7,B6,B5,
{8}B4,C,,8<1[2:1],,{16}E8,E7,E6,E5,E4,E3,
{8}E2,{4},{8}5,{4}5h[4:1],{8}3,3-5[8:1],
,6,,7,,6h[4:1],,4h[4:1],
,6,,7-4[8:1],{4},3,
{8},3/5,,4/6,{4},{8},5,
{4}5h[4:1],{8}4,3qq7[8:3],,5,{4}5,
,{8}6pp4[8:3],4,,3,3,3h[8:3],
{4},{8}5,6,{4}7-4[8:1],{8}1,1-5[8:1],
,7-3[8:1],,1>8[2:1]*q8[2:1],{4},,,{8},3,
{4}3h[4:1],{8}6,6-4[8:1],
,3-7[8:1],,8,,5,6,7/3,
,4qq5[8:3],4,6,{4},{8}7,7-1[8:1],
,2-5[8:1],2,6,{4},{8},4,
{4}4h[4:1],{8}5,6pp4[8:3],{4},{8},3,
{4}3qq7[8:3],{8}5,5h[2:1],{4},{8},3,
{4}2-4[8:1],6,5h[4:1],{8}3,2-6[8:1],
,7-1[8:1],,3-5[8:1],,5,,6,
,7,,1/8-5[8:3],{4},4,
4,{8}4,4h[4:1],,5<1[4:1],,1>5[4:1],
,5,,1,,2/6,{4}2v1[8:1]/6v5[8:1],
,{8}7,7-2[8:1],,7x/3-6[8:1],,3x/7x,
,1b/5b,,3,{4}3-5[8:1],{8}6,6h[4:1],
,2-6[8:1],,5<3[8:3],{4},{8}4,4bw8b[8:1],
{4},{8},5,{4}5h[4:1],{8}4,4bV28b[4:1],
,8bV64b[4:1],,4bV28b[4:1],,8b,,4bw8b[8:1],
,{48}4b,Cf,{4},{16},,,{48},{8}2-5[8:1],8,2,
7-4[8:1],1,7,2-6[8:1],,2/7-3-5-8[8:3],,7/4,
,2,{4}2b,{8},3-8[8:1],2,3/7-4[8:1],
{4}6,{8}1,1-5[8:1]/7-5[8:1],,1/7,,8-4[8:1]/2-4[8:1],
,8/2,,7b/3b,{4},{8}6-1[8:1],7,
6/2-6[8:1],3,8,8<4[4:1],,4>8[4:1],,8<4[4:1],
,4>8[4:1],,8<4[4:1],,4w8[8:1],{2},{8}7,
8<5[8:1]/2>5[8:1],,8x/2xv5-3-8[8:5],,7x/2x,
,7x-3[8:1],,{48}7b,Cf,{3},{8}8,2,
7-4[8:1],1,7,2-6[8:1],,2/7-3-5-8[8:3],,7/4,
,2,{4}2b,{8},3-8[8:1],2,3/7v4[8:1],
{4}6,{8}1,1-5[8:1]/7-5[8:1],,1/7-3[8:1],,7b/3b,
,4,4,4>6[8:3],,5,{4}5h[8:3],
{8},6,7,8>4[4:1],,4<8[4:1],,8V24[4:1],
,4bV68>4<8V24b[4:3],,6bh[8:5],{4},,{8},8w4[8:1],
,8,,1w5[8:1],{4},{8},7/3,
,8<1[4:7],,{16}B1,B2,{4}B3,
{1},{4},{8},8<1[4:7],
,C,{1},{4},,{8},8<1[4:7],
,{16}B8,B1,{4}B2,
{1},{4},{8},8<1[4:7],
,C,{1},{4},,{8},8<1[4:7],
,{16}B1,B2,{4}B3,
{1},{4},{8},8<1[4:7],
,C,{16},,{1},{2},{8}8<1[4:7],
,{16}B1,B2,{4}B3,
{1},{4},{8},8<1[4:5],
{4},,{8},B1,
B2,B3,{4},{8},Cfh[2:1],
{1},{8},6h[4:1],
,4h[4:1],,8-4[8:1],,2,
,7/3,,4,{4}4h[4:1],{8}6,6-4[8:1],
,3-7[8:1],,8,,6-4[8:1],6,3,
{4}3,6/2,5h[4:1],{8}3,3-5[8:1],
,5,6,7-1[8:1],,4,3,2/6,
,{16}7,6,5,4h,3h,2h,{2}1h/8<1[4:3],
{8},{16}3,2,{4}1-3-5-7-1[4:3]*>1[4:3],{1},{8},4/6xh[8:13],
,4,
,4,,4,,4,4,4,
,4,{4}4,5/3xh[8:15],5,
5,{8}5,5,,5,,5,
,5,,5,{4},4/5h[2:1],
4,4,4/Ch[4:5],4,
4,4,4,4,
{8}4,5/3,6/2,1/7-1[8:1],,7/2-6[8:1],,2/8bw4b[1.976##0.1796],
,8b,{1},{48},Cf,
{3},{8}7-4[8:1],1,7,
2-5[8:1],8,2,7-3[8:1],,7/2-6-4-1[8:3],1,2/5,
,7,{4}7b,{8},6-1[8:1],7,6/2-5[8:1],
3,2/6,7,8-4[8:1]/2-4[8:1],,8/2,,1-5[8:1]/7-5[8:1],
,1/7-3[8:1],,2b/7b,{4},{8}3-8[8:1],2,
3/7-3[8:1],6,2/7,1>5[4:1],,5<1[4:1],,1V35[4:1],
,5V71[4:1],,1>5[4:1],,5w1[8:1],{2},{8}2,
1>4[8:1]/7<4[8:1],,1x/7xv4-6-1[8:5],,2x/7x,
,2x-6[8:1],,{48}2b,Cf,{3},{8}1,7,
2-5[8:1],8,2,7-3[8:1],,7/2-6-4-1[8:3],,2/5,
,7,{4}7b,{8},6-1[8:1],7,6/2v5[8:1],
3,2/6,7,8-4[8:1]/2-4[8:1],,8/2-6[8:1],,2b/6b,
,5,5,5<3[8:3],,4,{4}4h[8:3],
{8},3,2,1<5[4:1],,5>1[4:1],,1V75[4:1],
,5bV31<5>1V75b[4:3],,3bh[8:5],{4},,{8},1w5[8:1],
,1b,,8w4[8:1],,8b,
,7/2,8/1,Cf/E1/B8/B7/E7/B6/B1/B2/E3/B3/B4/B5/E5,
