&title=The King's Return
&artist=Zekk
&first=0.06000001
&des=Radustiny & GLover
&lv_5=14.8
&des_5=Radustiny & GLover
&inote_5=
(200){4},,,,,,,,8/2-5[8:1],
{8}2,6,{16},,4,5,{4}4<4[2:5],
,,,,,,,,,,,,1/7-4[8:1],
{8}7,3,{16},,5,4,{4}5>5[2:5],
,,,,,,,,{1}Ch[1:1],
{4}8h[4:1],7h[4:1],{8}6h[4:1],,,5<8[8:7],
,,,,{2}C,
{4}1h[4:1],2h[4:1],{8}3h[4:1],,,4>1[8:7],
,,,,{2}C,
{4}5h[4:1],6h[4:1],{8}7h[4:1],,,8>3[8:7],
,,,,{2}C,
{4}4h[4:1],3h[4:1],{8}5,6-8[8:1]/2-4[8:1],,6-4v3b[8:5]/2-8v7b[8:5],
{16},,,,,,,,,,,,,,,,6,
5,6,5,{8}6,{16}3v4<6[4:1],4,2,4,{8}1,{16},,,,8,
7,8,7,{8}8,{16}5s1[4:1],6,4,6,{8}3,{16},,,,2,
4,2,4,{8}2,{16}4z8[4:1]*v7[4:1],3,5,3,{8}6,{16},,,,4,
6,4,6,{8}4,{16}6,5,7,5,{32}8x,1x,2x,3x,{4}4xw8[8:1],
{1}4>4v2>3-8[2:3]*<4v6>5-8[2:3],
{16},,,,,,,,,,,,,,,,8,
7,1,6,2,5,3,4,5,6,4,7,3,8,2,1,
{4}3q5[8:3],3,1xw5b[8:1],1bx,
8x/2x,{8}2,{16}1,7,1,7,{8}1,6,{16}5,3,
5,3,{8}5,4w8b[8:1],5/3,{4}4,{8}3>8[8:1],3,
{4}8,{8}7,{16}8,2,8,2,{8}8,3,{16}4,6,
4,6,{8}4,5-1[8:1],7-3-6b[4:1],5,7,,,7/2v5[8:1],
2/7,{4}2/7-4[8:1],7/8,{8}7/2-6[8:1],8,
{4}2/1,{8}2/7-3[8:1],1,{4}7/8w4[8:1],8b,
{8}3x>8[8:1],4,{4}5,{8}7<4[8:1],8,{4}1,
3b-8[8:1],3b/5b-8[8:1],5b/4bw8b[8:1],4b,
6x/2x,{8}2-7[8:1]/5pp1[1:1],2,5/2,,,2,
,,{4}2-7[8:1],{2}2-4[8:1],
{4}5x/3x,{16}2-7[8:1]*qq5[1:1],5,2,5,{8}2,,,2,
,,{4}2-7-2-8-4[2:1],{2}2,
{8}6v1[8:1],7,{4}5/6,{8}3v8[8:1],2,{4}3/4,
6,{16}7/1,,,2,,2,{8}6,3/7,4/8,
{1}1p3[2:1]/5p7[2:1],
{4}1b,2b,3bxh[32:7]/7bxh[32:7],{32}2b/6b,1b/5b,{16}4b/8b,,,{8}5x/1x,
3x/7x,{4}1x/8xh[8:1],{32}8-2[8:1],7,{16}6,{8}4b,8,4b,
{32}4b/8-2[8:1],7,{16}6,,,{8}3b/8,3b,{32}8-2[8:1],7,{16}6,{8}3b,8,4b,
{32}8-2[8:1],7,{16}6,{8}4b,{4}4b/8,{32}3b/8-2[8:1],7,{16}6,{8}3b,8,3b,
{16}4bx-2b[8:1]/8bx-6b[8:1],,,4bx/8bx,8bx/4bx,,,1bx/5bx,{8}1bx-5b[8:1]/5bx-1b[8:1],2bx/6bx,{4}1bx/5bx,
{8}7x/2x,7x/2x,{32}8x/1x,7x,6x,5xh[32:5],,,,,1-7[8:1],2,{16}3,{8}5b,1,5b,
{32}6b/1-7[8:1],2,{16}3,,,{8}6b/1,5b,{32}1-7[8:1],2,{16}3,{8}5b,{4}6b/1,
{32}1x-6-3[8:11]*-4-7[8:11],2/8,3/7,4/6,{8}5,,,,,,,,,,,,,,,1/7-4[8:1],
{16}2x-7[8:1],2x,{8}7x,2x,{16}5x,6x-8-2-4-6b[16:43],{8}7x-5-3-1-7[8:21],{4}Cf,
{1},,{4},,,{16},,{32}1,
2,3,4,
{8}5x-2[8:1],{16}7x-4[8:1],7x,{8}5x,7x,{16}1x,2x-8-6-4-2b[16:43],{8}3x-1-7-5-3[8:19],{4}Cf,
,,,,,,,,{1}Ch[1:1],
{4}E1,E8,E7,E6,
8/E5,7/E4,6/E3,5/E2,
{16}3,4,3,4,2,5,2,5,1,6,1,6,8w4[8:1],7,8,7,
{2}8,{8}6/5,4/3,2/8-3[8:1],6/4,
8b/7b,7,6/2-5[8:1],5-1[8:1],6/2,7,8-5[8:1],7,
2/8,3,4-6[8:1],5,{4}4/3-1[8:1],3/4v7[8:1],
{8}4/3,2,1-5[8:1],2,{4}1/3-7[8:1],3/6-2[8:1],
{8}6/1,8,7/1v4[8:1],6,{4}1/5v8[8:1],5/2-5[8:1],
{8}2,{16}8,7,{4}6bx-3[8:1],{8}6-1[8:1],2-5[8:1],6w2[8:1],2,
{4}6b,4bx-2[8:1],{8}4-6[8:1],8-5[8:1],4w8[8:1],8,
{4}4b,2bx-7[8:1],{8}2>5[8:1],6v1[8:1],2w6[8:1],6,
{1}2b-4-6-8-2[2:1]*-8-6-4-2[2:1],
{16}8x>2v4<6v8[4:5],7x,6x,5x,{4}Cf,{2}3h[4:1],
2h[4:1],{4}1s5[8:1]*z5[8:1],1,
4x/8-4[8:1],8-6>5[8:1]*-5[8:1],8-2>3[8:1]*-3[8:1],8-4b[8:1],
8,{8}2x-6[8:1],6x-8[8:1],{4}8x-4-2[4:1],{8}5xw1b[8:1],5x,
{4}5x,8x-4[8:1],{8}8-6[8:1],5-1[8:1],8w4b[8:1],5,
{4}8b,1x-5[8:1],{8}1-3[8:1],4-8[8:1],1w5b[8:1],4,
{2}1b,{32}8b/1b,7/2,6/3,5/4,,,,,,,,,,,,,{16}4,
5,3,6,2,7,1,8,1,2,3,4,5/2,3,4,5,
{4}6/1b-5[8:3],{16},,,,,,,,B8,B7,B6,B5,
{4}B4/3>8[4:1],{16},,,,,,,,B1,B2,B3,B4,
{4}B5/6<1[4:1],{16},,,,,,,,B1,B8,B7,B6,
{4}B5/1s5[4:1],{16},,,,,,,,5,4/6,3/7,2/8,
{8}1>4[4:1],{16},,,,4,5,6,7,8,1,2,3,4,5,
{12}6,2,2,7,3,3,8,4,4,1,5,5,
{2}8b<4[2:1],{16}4,,,3,,,{8}2,
{16}1/5,,,2/6,,,{8}3/7,{24}4,8,4,8,4,8,4,8,4,8,4,8,
{8}4x-8[8:1],7,4,6,1-6[8:1],5,1,4,
7-3[8:1],5,7,6,2-5b[8:1],8-4b[8:1],2,8,
3-7[8:1],6,3,8,1v6[8:1],7,1,8,
5-2[8:1],1,5,8,3-8b[8:1],7-4b[8:1],3,7,
1-5[8:1],1,6-2[8:1],6,4-8[8:1],4,7-3[8:1],7,
2-6[8:1],2,1-5[8:1],1,8-4[8:1],8,7-3[8:1],7,
2b-7[8:1],2,2/6b-1[8:1],6,6/4b-8[8:1],4,4/5b-1b[8:1],5,
{1}5b/3b>3b[2:1],
{4}2/6,{8}1/5,2/6,{4}7-4[8:1]/3-8[8:1],E6/E2/Cf,
{1}Ch[4:3],
{4}6x-8[8:1]/3x-1[8:1],6-4[8:1]/3-5[8:1],6/3,7-2b[8:1]/2-6b[8:1],
2-8-6[16:3],5-7[8:1]*v8[8:1],5-3>2[8:1],{8}1v6b[8:1]*-7b[8:1],8,
{4}1>4[8:1],1,{8}6/1,7/2,8/3-5[8:1],1,
3-6[8:1],8,3-7[8:1],7,3-8[8:1],6,3,5,
{16}4x-8[8:1],5x,6x,7x,8x/4x-1[8:1],7x,6x,5x,{4}4x,{8}2xv5[8:1],3,
{4}8/2,{32}7b/8bh[8:1],6,5,4,{8}3,{32}2b/1bh[8:1],3,4,5,{8}6,{32}8b/7b,6/1,2/5,3/4,,,,,{16}2x,
6,3,7,4,8,5,1,{24}5,4/8,3/7,2/6,1/5,8/4,{32}7/3,6,5,4,3,2,1,8,
{4}7/5bw1b[8:1],5b-8-6[4:7]*-2-4[4:7],
E
