&title=Red and Blue
&artist=Silentroom
&first=-0.65
&des=Red=right...?
&des_5=Red=right...?
&lv_5=14
&inote_5=(150){4},{8},,,,,Cfh[8:1],
B1/B2/E3/B3/B4,7h[16:3],{16},5h[16:3],{8},{16}2h[16:3],{8},{16}4h[16:3],{8},8>2[8:1],
{4}2>6[4:1],6<2[4:1],2-6[8:1],6,
{8}B5/B4,2h[16:3],{16},4h[16:3],{8},{16}7h[16:3],{8},{16}5h[16:3],{8},1bx-7b[8:1],
{4}7bxV53b[4:1],3bxV17b[4:1],7bx-3b[8:1],3,
{8}E5,7h[16:3],{16},1h[16:3],{8},{16}3h[16:3],{8},{16}5h[16:3],{8},6h[8:1],
{16},5h[8:1]/7h[8:1],{8},{16}3h[8:1],{8},{16}2h[8:1]/4h[8:1],{8},1h[8:1]/8h[8:1],{16},{128}3bxp2z6b[16:13],6xq7s3[128:103],{1},{16},,{64},,,{16}4,
5,4,5,4,5,4>1b[8:1],5,{8}4,5/4-8[8:1],,3/4/Cf,
,2,{32}7/1,6,5,4h[32:9],{16},{32}E8,E7,{8}E6,{32}E2,E3,{16}E4,5qq1[4:1],5,4,6,
{4},{32}B7,C,{16}B3,,2h[16:3],{8},5,{12}8V24b[4:1]/7>4[4:1],7/8,8/7,
{8},,,{16}5,5,{32}A3,B3,{16}C,{32}A6,E6,{16}E5,2-4[8:1],8,1-5[8:1],8,
{4}2<7b[8:1],{16}2b,{8},{16}6h[8:1]/5h[8:1],{8},4h[8:1]/3h[8:1],{16},2h[8:1]/1h[8:1],{8},{4}7h[8:1]/8h[8:1],
{32}1/8,2,3,4h[32:9],{16},{32}E2,E3,{8}E4,{32}E8,E7,{16}E6,3pp6[4:1],4,2,3,
{4}1,{32}A2,B3,{16}E5,,8h[16:3],{8},1,{12}1V75b[4:1]/2-8-4[4:1],2/1,1/2,
{8},,,{16}3,4,{8}2-5[8:1],2,{16}5,6,7-3[8:1],8,
{8}4h[8:1]/1-5b[8:1],7,1,6bh[4:1],,{16}5,5,6-1[8:1],6,7,7,
{4},{32}2/8,3,4,5h[32:9],{16},{32}E2,E3,{8}E4,{32}E8,E7,{16}E6,4pp8[4:1],4,5,3,
{4},{32}B2,C,{16}B6,,7h[16:3],{8},4,{12}1V75b[4:1]/2<5[4:1],2/1,1/2,
{8},,,{16}4,4,{32}A6,B6,{16}C,{32}A3,E4,{16}E5,7-5[8:1],1,8-4[8:1],1,
{4}7>2b[8:1],{16}7b,{8},{16}3h[8:1]/4h[8:1],{8},5h[8:1]/6h[8:1],{16},7h[8:1]/8h[8:1],{8},6/1-5[8:1],
2-4[8:1],1,2,8-4[8:1],{16}7-5[8:1],7,{8}8,7,
{32}E3,C,{16}E7,{8},{12}1>4[8:1]/8<5[8:1],8/1,1/8,{4}8/1-5b[8:1],{8}1,7h[4:1],
,8-4[8:1],1,8/2h[4:1],,1-3b[8:1],8,1/7-5[8:1],
,7/4-8[8:1]*-8[8:1],,4b,{4},{32}D1,E2,D3,E4,D5,E6,D7,E8,
{8}D1/Ch[8:7],{4},,,{8}2h[8:9],
{1},4h[1:1],
{2}6h[4:3],8h[8:3],
{8}5s1[2:1],4,{4}3h[8:5],{8},,,{16}8,8,
3,4,3,6,5,6,2,4,2,7,5,7,1,8,1,8,
2,4,3,3,7,5,6,6,2,1,8w4[8:1],7,{8},8,
,,,{16}5/3,6/2,{8}7/1-5[8:1],8-4[8:1],1,8,
{4}2-7[8:1],3-6[8:1],4-1[8:1],5-8[8:1],
6-3[8:1],7q2[4:1],2-7[8:1],3-8[8:1],
4-7[8:1],5-2[8:1],6-1[8:1],8-3[8:1],
4-7[8:1],1<6[8:1],5>2[8:1],{24}6,7,8,1,{12},{4}7-2[8:1],
6-3[8:1],{8}5-8[8:1],5,4-1[8:1],4,
{4}3-6[8:1],2p7[4:1],7-2[8:1],6,
{16}3,5,3,5,4,6,4,6,4,5,3,6,2qq7[4:1],7,1,8,
{8},,,{16}3,6,{24}4-1b[8:1],5-8[12:1],4,5,4,5,{4},{8}1x-5[8:1],
2,3/1,{16}2,7,8-4[8:1],7,{8}1,{4}2/8,
{8}7-3[8:1],8,7/1-5[8:1],2-6[8:1],1,2,4,{24}3,2,1,
{8}8x-4[8:1],7,6/8,{16}7,2,1-5[8:1],2,{8}8,{4}7/1,
{8}2-6[8:1],1,2/8-4[8:1],7-3[8:1],8,7,5,6/3,
{16}4,5,4,5,4,5,4,5,3,6,4,5,4,5,4,5,
3,6,4,5,4,5,4,5,3,6,4,5,3,6,4,5,
3,5,4,6,{32}2,3,{16}4,{32}7,6,{16}5,3,5,4,6,{32}3,4,{16}3,{32}6,5,{16}6,
{8}4/5,{24}8,7,6,2,3,4,7,6,5,1,2,3,{384}4bx-1b[16:1],{192},{384}5x-8[128:7],{16},,,{64},,,{192},{8}E5f/E4/E6/B5/B4/C/E1,
{4},{16}1,8,2,4,1-5b[8:1],8,2<7[8:1],4,{4}1w5[8:1]*w5[8:1],
,{16}3,3,4,2,{24}6>3b[8:1],5,6,4,{48},{16}8,{8}6bx-2[8:1],7,
{4}6/2,{16}8,1,7,5,8-4[8:1],1,7>2b[8:1],5,{4}8w4[8:1]*w4[8:1],
,{16}2/6-3b[8:1],3/7,4/8-4[8:1],5/1,{4}6/2,{24}2,1,8,7,{12},{4}Cf/E4/B4/E5/B5/E6,
{16}8,1,7,5,8-4[8:1],1,7>2b[8:1],5,{4}8w4[8:1]*w4[8:1],
,{16}6,6,5,7,{24}3<6[8:1],4,3,5,{48},{16}1,{8}3x-7b[8:1],2,
{4}3/7,{16}1,8,2,4,1-5b[8:1],8,2<7[8:1],4,{4}1w5[8:1]*w5[8:1],
,{16}7/3-7[8:1],6/2,5/1-5b[8:1],4/8,{4}3/7,{24}8-4[8:1],7,6,4,3,2,
{4}1/8,{16}3,4,1,4,8-4b[8:1],5,6-1[8:1],5,{4}8<3b[32:5],
{32}E8,E7,E6,E5,{8}E4,{16}2,2,4,4,8v6b[8:1],8,6<3b[4:1],6,{4}8q4[8:1],
,{16}6,5,8,5,1-5[8:1],4,3-8b[8:1],4,{4}1>6[32:5]*>6[32:5],
{32}E2,E3,E4,E5,{8}E6,{16}7-5[8:1],7,8-4b[8:1],8,{8}7-3[8:1],8-2b[8:1],A7,A8,
{24}5<1b[6:1],6<2[6:1],7>3b[6:1],2/8h[8:1],3,4,{4}5pp1[4:1],5,{16}2-6b[8:1],3,{8}4,
2/8,7,{24}6/5<8[8:1],4,3,2,{12},{8}5/2v5b[8:1],1,2/8,8,
{24}4>8[6:1],3>7b[6:1],2<6[6:1],7/1h[8:1],6,5,{4}4qq8b[4:1],4,{16}7-3[8:1],6,{8}5,
{4}7/1,{8}2-6b[8:1],{16}1,1,8,8,{8}7,{32}5<3b[4:1],4,3,2,1,8,7,6,
{4}5/3p6[4:1],6q4[4:1],4>7[4:1],7V13b[4:1],
3V57[4:1],7V52[4:1],2-8[8:1],8,
6q3[4:1],3p5b[4:1],5<2[4:1],2V86[4:1],
6V42[4:1],2V47b[4:1],7-1[8:1],{8}1,2,
{4}4/3-1b[8:1],{16}3-8b[8:1],8,7,6,3-7b[8:1],7,6,5,{8}4/3,5,
{4}5/6-8[8:1],{16}6b-1[8:1],1,2,3,6b-2[8:1],2,3,4,{8}5/6b,4,
{4}4/3h[4:1],{16}1,2,1,2,7,8,7,8,{24}6-2[16:1]*-2[16:1]b,5,6,5,6,5,
{1}Cf/B2/B6,
E
