&title=ALL I WANNA DO
&artist=月鈴 白奈(CV:高野 麻里佳)
&first=0.03
&des=Ayuri
&des_5=Ayuri
&lv_5=14
&inote_5=(170){4},{1},{4},,{8},{16}2/E6,
3/E7,
{1}E8/4<1p3[2:3],
6h[4:3],
{8}4h[4:1]/5h[4:1],,,3h[4:1]/6h[4:1],{24},,,,,,,,,2,1,8,
{4}7pp3[2:1],2h[2:1],,,2pp5[4:3],
{8}5,6,{2}7-1[8:1],
{4}7qq4[4:3],{8}4,3,{2}2-8[8:1],
{8}7h[8:7],,,3h[2:1],{16},,,,,,,,8,
1,2,3,4,5,6,7,{2}8p3[8:1]*q5[8:1],
{4}1>5[4:1],{8}1/7,8<4[4:1],,8/2,{4}1q4[8:5],
{8},,,4V28[4:1],,,,,{4}7v2[4:1],
{8}7/2<4[8:3],3h[4:1],,,{4}2v7[4:1],
{8}2/7>5[8:3],6h[4:1],,,,7,6/4,5/3,
{4}2-5[8:1],{8}7-3[8:1],6,{4}4/7,4q1[4:1]/5p8[4:1],
{8}4/5,,,2p5[4:1]/7q4[4:1],,2/7,,,1/8,
7/2,3/6,5/4v1[8:1],,4,{4}6v3[8:1],
{8}6,8v5[8:1],,8v3[8:1],,8,{16},,5,4,
{8}6h[4:1]/3q7q4[2:1],,,5,{4}4>1[4:1],{8}7<4[8:1],7,
,,8>3[8:1],8,{4}4-8[8:1],4,
{8}3h[4:1]/6p2p5[2:1],,,4,{4}5<8[4:1],2>5[8:1],
{8}2,1<6[8:1],,1,{4}5-1[8:1],5,
{8}2/7,{16}6-4[8:1],3,{8}8h[8:3],6,{16},,3,1,{8}7,{16}1,8,
{8}2,5q8[8:3]/3p8[8:3],,,,,{4}A8/E8/B8/E1,
{8}2/6,{16}3,3,{8}5,4/8,{16}6,6,{8}4,3/4,4/5,
5/6,{16}7,8,{8}7,1/2,7/8,{16}1,8,1,8,{8}1,
{4}3>8[8:1],{8}6>3[8:1],5h[4:1],{16},,,,6bx/2bx,7/3,8/4,1/5,
{12}2,3,2,5,4,5,{16}3,4,3,4,3,2,1,8,
{4}7/4V68-2[4:1],{8}1/4V25[4:1],2,4,8>3[8:1],,8,
{16}4,5,6,7,8,1,2,3,4/8,7,6,5,{8}1-6[8:1]/4-8[8:1],5/2,
{4}4/1,{8}7,4,6/3<6[8:1],5,{4}2,
7>2[8:1],{8}2/7,3,{4}4w8[8:1],4,
6V41[4:1],1V35[4:1],{2}5V71[4:1],
{8}6,5,4,3,{16}5,4,5,4,6,3,6,3,
{4}6<1[8:1],{8}3<6[8:1],4h[4:1],{16},,,,3bx/7bx,2/6,1/5,8/4,
{12}7,6,7,4,5,4,{16}6,5,6,5,6,7,8,1,
{4}2/5V31-7[4:1],{8}8/5V74[4:1],7,5,1<6[8:1],,1,
{16}5,4,3,2,1,8,7,6,5/1,2,3,4,{4}8-3[8:1]/5-1[8:1],
5/8,{8}2,5,3/6>3[8:1],4,{4}7,
2<7[8:1],{8}7/2,6,{4}5w1[8:1],5,
7>2[8:1],{8}2/7,3,{4}4w8[8:1],4,
{8}6,7,2,3,{16}5,4,5,4,6,3,6,3,
{4}7qq5qq3[4:3],{8}4,4,{2}2h[4:1],
{4}2pp4pp6[4:3],{8}5,5,{2}7h[4:1],
{4}8<5pp4[2:1],{8}4,3,{4}2<8[8:1],{8}2,3,
4h[4:1],,,3h[4:1]/6h[4:1],,,2/7,1/8,
{32}E8/B8/B1/E2,B7/B2,B6/B3,E6/E4,,,,,{8}5x/4x,5/4V26[4:1],,5V73[4:1],,,,,{4}6h[2:1]/2h[2:1],
{16},,,,,7/3,8/4,1/5,
{4}6/2-8<7-3[16:3],{8}2-6[8:1]*-5[8:1],4,{4}2x<4[4:1],2,
{8},2,4,3,5,5,4/6,6/4,
{4}3/7-1>2-6[16:3],{8}7-3[8:1]*-4[8:1],5,{4}7x>5[4:1],7,
{8},7,5,6,4,{16}5,4,{8}6,{16}4,5,
{4}3pp4qq2[2:1],{8}3/7,5x<8b[8:1],,5-1[8:1],,5,
{4}6qq5pp7[2:1],{8}6/2,4x>1b[8:1],,4V68[4:1],,4,
{4}3h[4:1],{12}1,1,1,4,4,4,6,5,6,
3,4,3,{48}6,,,5,,,{16}6,5,3,4,3,4,{4}2<7[8:1]/5>2[8:1],
5/2,{8}6-2[8:1]*-1[8:1],5,{4}6>4-8>2[8:3],{8}6,7h[4:1],
,,6/3,4/5,{16}3,4,3,4,6,5,6,5,
{4}7>2[8:1]/4<7[8:1],4/7,{8}3>8[8:1],7<4[8:1],3,7,
{16},,1,5,2,6,3,7,{4}8-4[8:1]/4-8[8:1],8/4,
6<1[8:1],{8}6/3,2pp8[4:1],,2,{4}6<1[8:1],
{8}6,3qq5[4:1],,3/5,6,7,{4}8>3[8:1],
{8}6,{16}5<8[8:1],4,{8}5,3,{16}2-6[8:1],1,{8}2,{4}4q5[8:3],
{8},5<4[2:1],,,,,,,{1}E6h[4:23]/E7h[4:23]/E4h[4:23]/E3h[4:23],
,,,,,{8}2b/5b,
{16}3,4,{8}3,7b/4b,{16}6,5,{8}6,4/5,5/4,
3/6,3/6,7/2,7/2,1/8,1/8,{24}7,6,5,4,3,2,
{4}1h[4:1],{32}8b-4b[8:1],7/2,3/6,5/4,,,,,{8}8/2>5-2[4:1],1,{4}2/6h[8:1],
{12}6,7,8,2,3,4,{16}6,7,8,1,6/2-6b[8:1],5,4,3,
{8}2/7<4-7[4:1],8,7/3V15[4:1],2,3,6h[4:1],{16},,,,4,
3,2,1,4/8-4[8:1],5,6,7,{8}8/3,2,{4}1-5[8:1]*-6[8:1],
1,{8}3-7[8:1]*-8[8:1],4,{4}3<6[8:1],3/5-1[8:1]*-2[8:1],
5,{8}7-3[8:1]*-4[8:1],8,{4}7>2[8:1],{8}7/2,{32}E3,E4,E5,E6,
{4}E7/1xV38-4[8:3],{8}3,5,{4}7>2[8:1],{8}7/3,4,
{4}5-1[8:1],4-8[8:1],3-7[8:1],2-6[8:1],
1h[2:1],{8}4,3,{4}2h[2:1],{8}4,5,
{4}6h[2:1],{8}5,4,{4}3h[2:1],{8}5,6,
{4}7h[2:1],{8}6,5,{4}4h[2:1],{8}6,7,
{4}8V26[4:1],6V41[4:1],{2}2-7[8:1],
{8}6h[8:1],4h[8:1],5h[8:1],3h[8:1],{4}1<5[4:1],5>1[4:1],
,4-7[8:1]*-1[8:1],4,{24}8,1,8,1,8,1,
{4}8p6[8:3],8/2>5[8:1],2,8h[4:1],
1q3[8:3],1/7<4[8:1],7,1h[4:1],
3<6[8:1],{8}3-8[8:1],2,3/7-2[8:1],6,7,5h[4:1],
,1<6[8:1],2,3,4>1[8:1],5,{32}6/E5,E4,E3,E2,{8}E1,
{4}7/6>3[8:1],6-1[8:1],{8}6/2-7[8:1],3,2,4h[4:1],
,8>3[8:1],7,6,5<8[8:1],4,{32}3/E5,E6,E7,E8,{8}E1,
2-5[8:1],1,2,7-4[8:1],8,7,1h[4:1],{32}D4,D3,D2,D1,
{4}8x-6[8:1]*-3[8:1],8V25[4:1],5V31[4:1],{16}1,8,7,6,
{8}5-2[8:1],8>3[8:1],5,8,,4>1[8:1],1,4,
,5<8[8:1],8,5,{16}1,2,3,4,8,7,6,5,
{8}4-7[8:1],1<6[8:1],4,1,,5<8[8:1],8,5,
,4>1[8:1],1,4,{16}8,7,6,5,1,2,3,4,
{8}5/1,{16}7,7,{8}5,6/3,{16}2,2,{8}4,3V58[4:1]/6V41[4:1],2/7,
6/3,{16},,,,6,5,{8}4,{16}3,4,{8}5,6/3,
{1}5-1>3-7<4[1:2],
,4bz8>1s5[1:3],
E
