&title=Warm and Small Light
&artist=塞壬唱片MSR
&first=8.7
&des=ark differ 眼眸盛满明亮,轻捧被遗忘的希望。 温暖而细腻的光芒,化开久不退散的阴暗。 夜空清澈,星点绽放,明天定会晴朗。
&lv_5=12+
&inote_5=(100)
{24},,3,4,,4,3,,,25,,,6,,5,,,7,5,,6h[4:1],E6,E5,E4,E3,E2,E1,E8,E7,
{8}6x<3>6[1:1],,
{24},A4,,,,,,A3,,,,,,A4,,,,,,A3,,,,,,A4,,,,,,A3,,,,,,C,,,,,,3x>6<3[1:1],,,,,,A5,,,,,,A6,,,,,,A5,,,,,,A6,,,,,,A5,,,,,,C,,,
{16}2x,2x,
{24}4,,,5>2[4:1],,,6,,,6,,,7,,,8,,8,,,,
{16}7,7,
{24}6,,,5p4[4:1],,,4,,,3,,,2,,,
{16}1,1h[16:7],
{24},,,,,,,,,3>5[2:1],,,,,,,,,,,,,,,4,,,3,,,2,,,1-4[3:1],,,E8,,,,,,B7,,,,,,B6,,,
{16}4,4,
{24}E6/3xqq5[2:1],,,2,,,3,,,,,,,,,,,,,,,
{16}6,5,
{24}5pp5b[2:1]*qq5pp5[2:1],,,6,,,5,,,,,,,,,,,,,,,,,,,,,34,,,2,,,
{16}1,1,
{24},,,78,,,6,,,
{16}5-7>2-4[4:3],5,
{24},,,,,,,,,,,,,,,,,,,,,1,,,8,,,6,,,5h[4:1],,,,,,E8,,,3h[4:1],,,,,,4,,4,B3,,,2>6>2[2:1],,,E2,,,,,E1,,,,E8,,,,,,7,,,1,,,3,,,4h[4:1],,,,,,C,,,4,,,3,,,7V53<8[4:3],,7,E2,,,,,,E8,,,,,E1,,,,E2,,,,,,,,,3>4[1:1],,,,,,3h[2:1],,,,,,,,,,,,,,,,,,,,,,,,3>6[2:1],,,,,,,,,,,,,,,,,,
{16}5,5,,4h[16:3],,,,,6,7,,8h[4:1],,,,,1,1,,2,,,3<6[4:1]/4,,,,,,,,,,,,
{16}3,,4,,5,4h[16:3]/6,,,7,,6,,5<4[4:2]*q4[4:2],34,,,,,,,,,,,,,,,
{32}4x,3x,2x,1x,8x,7x,6x,5x,4x/8x,3x/7x,2x/6x,1x/5x,8x>3[8:1]/4x,,,,4,,,,7<4[8:1]/8,,,,,,,,7/8>3[8:1],,,,,,,,7/8<4[2:1],,,,,,,,1,,,,2,,,,3q6[4:1],,,,,,,,3b,,,,,,,,
{16}7,,7<4[8:1],8,8,,7,,3>8[8:1],,2,,7<4[8:1],,,,3>6[2:1]*p6[2:1],,,,3,,,,,,,,,,
{32}5x,6x,7x,8x,1x,2x,3x,4x,5x/1x,6x/2x,7x/3x,8x/4x,1x<6[8:1]/5x,,,,5,,,,2>5[8:1]/1,,,,,,,,2/1<6[8:1],,,,,,,,2/1>5[2:1],,,,,,,,8,,,,7,,,,6-3-5v4-6[8:3],,,,,,,,6b,,,,,,,,,,,,
{16}2,,3,,4>5[4:3],5,,5,4,,,,,,E1,,,C,,,E5f,,,,3h[2:1],,,,,,
{32}E4,E3,E2,E1,E8,E7,E6,E5,
{16}Cf/3>3-5-7-1-3[2:3],,,,,,,,,,,,,,,,,,,,,,,,,,,,,,,,6-8-2-4-6>6[2:3],,,,,,,,,,,,,,,,,,,,,,,,,,,,,,,,3-1-7-5-3<3[2:3],,,,,,,,,,,,,,,,,,,,,,,,,,,,,,,,
6<6[4:3],,,,,,,,,,,,,,,,B2,B3,,,,,45,45,,,,,6,,7>2[4:1],,6,,5,5,,,3<6[4:1],,2,,1,1,,,8w4[2:1],,,,,,,,,,,,,,,,,3,,4,,6,5,6,,3V52[4:1]/7V16[4:1],,,,,,,,,,,,,,,,,,,
{24}3,3,4,6,6,5,,,,
{32}1x<6[8:1]/5x,,,,5,,,,2>5[8:1]/1,,,,,,,,2/1<6[8:1],,,,,,,,2/1>5[2:1],,,,,,,,8,,,,7,,,,6p3[4:1],,,,,,,,6b,,,,,,,,
{16}2,,2>5[8:1],1,1,,2,,6<1[8:1],,7,,2>5[8:1],,,,6<3[2:1]*q3[2:1],,,,6,,,,,,,,,,
{32}4x,3x,2x,1x,8x,7x,6x,5x,4x/8x,3x/7x,2x/6x,1x/5x,8x>3[8:1]/4x,,,,4,,,,7<4[8:1]/8,,,,,,,,7/8>3[8:1],,,,,,,,7/8<4[2:1],,,,,,,,1,,,,2,,,,3-6-4v5-3[8:3],,,,,,,,3b,,,,,,,,,,,,
{16}7,,6,,5<4[4:3],4,,4,5,,,,,,E1,,,C,,,E5f,,,,6h[2:1],,,,,,
{32}E6,E7,E8,E1,E2,E3,E4,E5,
{16}6x,,4,,3,5,2,,3,5,4,,56,,34,,28,,1,,18,,7,,2,1,2,,38,,56,,3x,,5,,6,4,7,,6,4,5,,43,,65,,71,,8,,81,,2,,78,,61,,43,,
