&title=ANEMONE
&artist="HuΣeR × Yvya" feat.紫村 花澄
&first=-0.03
&des=∃x ∈ ℝ, x ≤ ∞
&des_5=∃x ∈ ℝ, x ≤ ∞
&lv_5=13+
&inote_5=(174){4},{8},,,,,,,,,,,,,,,,,,B2/B3,
B7/B6,4b,5,
3/6,5,{4}2x/4x,{8}5/7h[4:1],5,4,6,
3x,5,2xh[8:1],4,3x,1,{4}8b/2b,
4/6h[4:1],{8}3x,5,4,6/3h[4:1],,5,
4,6,5xh[8:1],7,8,6,7b/1b,2,
5/3,6,{4}7x/5x,{8}4/2h[4:1],4,5,3,
6x,4,7xh[8:1],5,6x,8,{4}7b/1b,
{8}5/3,4,7x/5x,6,3/4,2h[8:1],7b,2,
1/7,6/8,7x/5x,4/3,7x/1x,6/4,1b/Cf,2,
3/8,7,{4}6x/1x,{8}8/7h[4:1],8,1,6,
2x,8,3xh[8:1],7,2x,5,{4}6b/4b,
1/7h[4:1],{8}2x,8,1,7/2h[4:1],,8,
3,7,1xh[8:1],6,4,7,5b/7bh[8:1],4,
5,3,{4}2x-6[8:1],{8}2/1,7-4[8:1],{16},,8/7,1,
{8}2h[8:1],5,4b/6b,7b/8b,{4}1b/2b,{8}7h[4:1],5,
2h[4:1],4,{4}6xh[4:1],{16}1,8,{8}7/2h[8:1],6x,5/4,
{16}3,4,{8}3,6x/5x,7,6x/5x,4,{4}3h[8:7],
1,7,5,4h[8:7],
6,8,2,5h[8:7],
3,1,7,6h[8:7],
8,2,4-8[8:1],{8}4,7<5[8:1],
1,7,1>3[8:1],4-8[8:1],1,4,5>2[8:1],7,
5,6h[8:1],{4}8-4[8:1],{8}8/1,2,{4}3/5-1[8:1],
{8}5/4,3,{4}8/2>5[8:1],{8}2/8,7,{4}6/4-8[8:1],
{8}4/5,6,{4}7/1,{8}1/7,1,2b/8-5[8:1],2,
2,2,3/7x-4[8:1],3,3,3,2/1-5[8:1],2,
2,2,3/6x-8[8:1],3,3,3,2-4[8:1],{16}1-5[8:1],8,
{8}2,1,{24}2>5[8:1],1,8,7,,,{8}2-6[8:1],1,2/8-4[8:1],7,
{24}8/1-5[8:1],2,{12}3,,{4}1/6,{8}7/2,7,6b/8-3[8:1],6,
6,6,7/1x-4[8:1],7,7,7,6/2-5[8:1],6,
6,6,7/3x-1[8:1],7,7,7,6-8[8:1],1-5[8:1],
6,1,7-4[8:1],2-6[8:1],7,2V86[24:7]*<5[8:3],,,,,,,3,
4,{4}2pp1[4:3],
{8},7,,,6,,,8/4,
{4}2,{8}3,4,5,6,{4}6pp5[4:3],
{8},3,,,2,,,8/4,
{4}6,{8}7,8,1,2,{4}2pp6[16:7],
,7<3[8:3],8,2pp7[16:7],
8,8<1[4:5],{2}8xh[4:5],
{8},,,,,,,,8-4[8:1],
{16}1,1,{4}8b/2b-6[8:1],2b/1bw5[8:1],Cf,
{8}2,4,3/5,6,4/6,3,2-5[8:1],{16}1,1,
{8}2,8,7,1>4[8:1],8,1b/7h[4:1],,,8<5[8:1],
1,8b/2,{16}3,4,{8}3,7,2/8,3,
5/4,6,{16}7/8,1,2,3,{8}4/5,7,5/6,4,
5/6,7,3,{16}3,4,{8}2,1,{16}7/2,6,5,4,
3,2,1,8,7/2,3,4,5,6,7,8,1,{8}2/6,6<1[8:1],
5,6/4,3,4,2-4[8:1],{16}5,5,{8}2-6[8:1],{16}7,7,
{8}2,8,{32}1,2,3,4,5,6,7,8,{8}5/1w5[8:1],7/3,{4}Cf,
{8}7,5,6/4,3,5/3,6,{4}5/7h[4:1],
{8}5x,4x,3x,2x/8<5[8:1],1x,8b/2h[4:1],,4,
3,5,4-8[8:1],3,{4}4/2-6[8:1],7b/2b,
{8}4/5,3,{16}2/1,8,7,6,{8}5/4,2,4/3,5,
4/3,2,6,{16}6,5,{8}7,7,8/7,1,
8/7,6,2,{16}2>5[8:1],1,{8}3,2b/8-4[8:1],,8b/3-8[8:1],
,3b/5v6[16:3],,1,2,3,5/4,7,
5/6,2,3/4,8/1,5/6,8/1,2/4,3/5,
4/6,5/7,2/8,6/5,7/8,4/2,3/1,2/8,
1/7,8/6,7/3,8/1,2/4,8/3,{16}6b,4b,{8}8b,
7/5,3/1,6/4,3/8,7/5,6/2,8b/1b,{16}7/2,6/3,
{8}5/4,6/3,7/2,6/3,2V41[16:3]/7V58[16:3],5/4,{4}7b/2b,
{8},2/7,3/6,5/4,7,2,5b,{16}3,4,
{8}3,6,{16}3,4,2,4,{8}3,3,{16}6,5,7,4,
6,5,{8}6h[8:1],{24}4,5,4,5,,,{8}3,2,2/5,{16}3,4,
{8}3,2/5,{16}6,5,7,4,8,3,1,2,{4}8bh[4:1]/3bpp6[16:7],
,7<2[16:7],,1qq4[16:7],
,5<8[16:3],{8}5,2q6[8:1],,2/1,
{4}7p3[8:1],1/7,2h[4:1],3h[4:1],
4h[4:1],5h[4:1],6,{8}7/4,6,
5/2,3,8/4,6,5/1,3,7/5,6,
4/2,3,4/5,6,4/5,3,4x/6x,7,
5x/3x,2,6x/4x,8,5x/3x,1,7x/4x,8,
5x/2x,7,{4}1/8-4[8:1],{8}8/3,2-6b[8:1],7x,7,
7,7,7,8,1,2,2x,2,
2,2,2,1,8,7,7x-5[8:1],8,
1,2x-4[8:1],1,8,7x-4[8:1],1,2-5[8:1],8,
7<4[8:1],8,1,2<7[8:1],3,4,6x,6,
6,6,6,5,4,3,3x,3,
3,3,3,4,5,6,6x-8[8:1],5,
4,3x-1[8:1],4,5,6x-1[8:1],4,3-8[8:1],5,
6,5,4,3<6b[8:1],1/8,6b/3b,
E
