&title=Collapse of Ego
&artist=DJ Myosuke
&first=0.016
&des=DmieJz
&clock_count=4
&lv_5=14+
&inote_5=(175){1},,
{48}A6/2,D7,A7/3,D8,A8f/4h[48:44],,
{16},,,,,,,,,,,,,,
Ch[8:6],,,,,,,,,,,,,,,,
{48}A3/7,D3,A2/6,D2,A1f/5h[48:44],,
{16},,,,,,,,,,,,,,
Ch[8:6],,,,,,,,,,,,,,,,
{48}A2/6,D3,A3/7,D4,A4f/8,,
{16},,8,,,,7,,,,7,,,,
6/Chf[16:1]/B2,,,,6,,,,5,,,,5,,,,
3/4,,2,,1/8,,7,,5/6,,4,,1/3,,2,,
1-6[8:1]/7,,,7,
1-5[8:1],,4v7[8:1]*p8[8:1],,1,,,,,,,,
7x,8,
{24}7x,6x,5x,
{16}8x,7,8x,7,
{24}8x,1x,2x,
{16}3x,
8,1x,8,1x,8,
{24}1x,2x,3x,
{16}7x,8,7x,1,8x,1,7x,8,
{24}7x,6x,5x,
{16}1x,8,1x,8,1x,8,2x,1,2x,1,2x,
7x,5,6x,5,7x,5,7x,
{24}2x,3x,4x,
{16}1x,2,1x,2,1x<5b[6:1],,3V17[6:1],,4,,,,,,,,
3x,4,
{24}3x,2x,1x,
{16}4x,3,4x,3,
{24}4x,5x,6x,
{16}7x,
4x,5,4x,5,4x,
{24}5x,6x,7x,
{16}3x,4,3x,5x,4,5x,3,4x,
{24}3x,2x,1x,
{16}5x,4,5x,4,5x,4,6x,5,6x,5,6x,
3,1x,2,1x,3,1x,3,
{24}6x,7x,8x,
{16}5x,6,5x,6,5x>8b[4:1],,7V53[6:1],,8-4[8:1],,,,,,,,
7,1x,
{24}8,2x,3x,
{16}4x,7,1x,8,2x,8,1x,7,1x,8,
{24}2x,3x,4x,
{16}7x,8,7x,2,1x,2,7x,1,7x,2,8x,2,
{24}7x,6x,5x,
{16}1x,8,1x,7,1x,8,2x,8,1x,8,
{24}2x,3x,4x,
{16}8x,1,8x,2,8x,1,7x,1,8x,1,
7x,5,6x,4,7x,5,6x,5,
{64}7h[8:1],E5f,B4,B3,E3,,,,
{16},,
2x,8x,
{24}1,7x,6x,
{16}5x,2,8x,1,7x,1,8x,2,8x,1,
{24}7x,6x,5x,
{16}2x,1,2x,7,8x,7,2x,8,2x,7,1x,7,
{24}2x,3x,4x,
{16}8x,1,8x,2,8x,1,7x,1,8x,1,
{24}7x,6x,5x,
{16}1x,8,1x,7,1x,8,
{32}2,3,4,5,6,7,8,1,2,3,4>4[6:1],5x,
{16}Ch[8:1],,,,
{48}A4,A3,A2,A1,A8,A7,A6,A5,
A4,,,,,,,,,,
{16}Cf,,,6,5/6,,7,,5/6,,7,,8b,,1,,
2,,,4,3/4v6b[8:1]*<6b[8:1],,2,,4>1[8:1]*p8[8:1]/3,,,,4,,,,
7,,,5,5/6,,7,,5/6,,7,,8b,,1,,2,,,
4,3/4,,2,,1h[16:4]/5b,,,,
{48}E6,E5,E4,E3,E2,E1,E8,E7,E6,,,,
{16}2-6[8:1],,,1,,,4,,5-1[8:1],,,
4,,,7,,8-4[8:1],,,7,,,3,,
2,,1/7,,3/8,,1/7,,4-7[8:1]/8,,,
5,,,2,,1-5[8:1],,,2,,,6,,7-3[8:1],,,8<4b[6:1],,,
4q1[6:1],,2,,,,,,,,
2-6[8:1],,,1,,,4,,5-1[8:1],,,
4,,,7,,8-4[8:1],,,7,,,3,,
2,,1/7,,3/8,,1/7,,4-7[8:1]/8,,,
5,,,2,,1-5[8:1],,,2,,,6,,7b,,,8bxv6b[140#10:1]*<6b[140#10:1],,,,,
8b>3[8:1]*q4[8:1],,,,8bx,,,,
7,5,7,,7,3,
{24}7,6,5,
{16}3,1,3,,3,5,3,5,
{24}3/6,4,5,
{16}7,8,7,,7,5,7,,
7/8,,5/6,,3/4,,1/2,,
2,4,2,,2,1,
{24}2,3,4,
{16}7,5x,7,,7,1,
{24}7,6,5,
{16}3,4x,3,,3,1,3b-8[8:1],,,,
3b,,Ch[8:1],,B5/B4,,
{24}1,2,3,4/8,,,8,,,
7,6,5,4,1,2,3,4/Ch[16:1],,,,,
8,7,6,5/1,,,1,,,2,3,4,5,8,7,6,5,4,
Ch[16:1],,,1,,,
{32}1,2,3,4,5,6,7,8,
1,2,3,4,5,6,7,8,
1,2,3,4,5,6,7,8,
1,2,3,4,5,6,7,8,
{12}1x/7x,1x/7x,2x/6x,2x/6x,3x/5x,3x/5x,
3bx/5bxw1b[8:1],,,,,,
3bx/7bx/E8/E7/B7/Ch[12:11],,,,,,,,,,,
E3,,,,,,,,,,,,,,,Ch[12:10],,,,,,,,,,,,,,,,,,,,
Ch[12:8],,,,,,,,,,,,,
Ch[12:10],
{16},,,,,,,,,,,,,,,,,,,,,,,
Ch[16:25],,,,,,,,,,,,,,,,,,,,,,,,,
E2,,,E3,,,E4,,
E5,,,E8,,,E7,,
E6,,,E5,,,E1,,
E2,,,E3,,,E4,,
E5,,,E8,,,E7,,
E6,,,E5,,,E2,,
E3,,,E4,,,E5,,
E8,,,E7,,,C,,
E2/5,,,E3,6,,E4,,
E5/7,,,E8,4,,E7,,
E6/3,,,E5,2,,E1,,
E2/5,,,E3,6,,E4,,
E5/6,,,E8,4,,E7,,
E6/3,,,E5,2,,E2,,
E3/6,,,E4,7,,E5,,
E6/8z4[6:1],,,,,,,,
2-5[8:1],,3/4,,2,,6-2[8:1],,
2-8[8:1]/7-3[8:1],,6,,7,,,,
7-4[8:1],,6/5,,7,,3-7[8:1],,
7-1[8:1]/2-6[8:1],,3,,2,,,,
7-3[8:1],,5/6,,7,,2-6[8:1],,
1-6[8:1]/6-3[8:1],,2,,1,,,,
2-6[8:1],,4/3,,2,,7-3[8:1],,
8>3[8:1]/3<6[8:1],,7,,8,,,,
3x/7,,6,5,7-1[8:1],,6,,4-8[8:1]/7-4[8:1],,5,,
4/7,,,,
6/2,,3,4,2-8[8:1],,3,,5-1[8:1]/2-5[8:1],,4,,
5/2,,,,
3/7,,7,8,6-4[8:1],,5,,1-5[8:1]/6<1[8:1],,2,,1/6,,,,
6/2,,2,1,3-5[8:1],,4,,3/8,,7,,1/6,,5/8,,
{16}5,5,
{32}1,2,3,4,5,,,,
{16}7,,5,6,5,7,4,,3/8,,
{16}2,2,
{32}8x,7x,6,5,4,,,,
{16}1,,4,3,4,2,5,,1/6,,
7,7,
{32}1x,2,3,4,
{16}5,,7,,
6,4,5,2,4,,1/6,,
5,5,
{32}8x,1,2,3,
{16}4,,7,,
5,4,6,5,7,8,6,1,
5,5,
{32}1x,2,3,4,
{16}5,,7,7,
5,6,5,7,4,,2/6,,
1,1,
{32}8,7,6,5,
{16}4,,2,2,
4,3,4,2,5,,3/7,,
2,2,
{32}7,6,5,,
{16}3,,1,8,
{32}2,3,4,,
{16}6,,1,7,
{32}2,3,4,5,
{16}8,8,
5,,4/8,,3/7,,1-5[8:1]/5,,,,,,,,
7,5,7,5,4/7,,3/8,,
{32}3/8,7,6,5-1[8:1],
{16}1,,
{32}6/2,3/7,4/8,5,
{16},,
7,3,4,3,5/2,,6/1,,
{32}6/1,2,3,4-8[8:1],
{16}8,,
{32}3/7,6/2,5/1,4,,,,,
{16}2,4,3,5,2,,2/8,,
{32}8/3,7,6,5-1[8:1],
{16}1,,
{32}6/2,7/3,8/4,5,
{16},,
{16}7,5,6,4,7,,7/1,,
{32}1/6,2,3,4-8[8:1],
{16}8,,
{32}3/7,2/6,1/5,4,
{16},,2,2,
7,1,
{32}7,6,5,,
{16}1,8,1,8,
{32}2,3,4,,
{16}7,1,8,1,8,2,8,1,
{32}7,6,5,,
{16}2,8,1,8,2,1,2,1,
{32}2,3,4,,
{16}7,1,7,8,6,8,7,8,
{32}6,5,4,,
{16}1,8,1,7,1,8,
{32}2,3,4,,
{16}8,2,8,1,
{32}7,6,5,4,
{16}1h[2:1],,,,C,,,,
7,5,7,,7,3,
{24}7,6,5,
{16}3,1,3,,3,5,3,5,
{24}3/6,4,5,
{16}7,8,7,,7,5,7,,
7/8,,5/6,,3/4,,1/2,,
2,4,2,,2,1,
{24}2,3,4,
{16}7,5x,7,,7,1,
{24}7,6,5,
{16}3,4x,3,,3,1,3b<6[8:1],,,,
3b,,Ch[8:1],,
1x,3,1x,,1,6,
{24}1,2,3,
{16}7,5x,7,,7,8,
{24}7,6,5,
{16}2,4x,2,,2,1,
{24}2,3,4,
{16}5/7,,3/5,,4/7,,2/5,,
1,3,1,,1,7,
{24}1,2,3,
{16}7,5x,7,,7,2,
{24}7,6,5,
{16}2b-4[8:1],,,1bx^7b[140#10:1]*v7b[140#10:1]/2bx,,,,,
1bq5[8:1]*>4[8:1],,,,1b,,,,
6,5x,6,,6,8,
{24}6,5,4,
{16}2,3x,2,,2,8,
{24}2,3,4,
{16}8,5x,8,,8,2,
{24}7,6,5,
{16}3/4,,1/2,,5/6,,7/8,,
2,1x,2,,2,4,
{32}2,3,4,5,
{16}8,6x,8,,8,3,
{32}8,7,6,5,
{16}2,4x,2,,2,1,
{32}2-7-3-5-1[3:1],3,4,5,
{16}8,,,,,,,
,7b,,,2b/8b,,,4b/6b,,
3,4,2,5,3,4,2,2,8b,,,
3b/5b,,,2b/6b,,
6,5,7,4,6,5,7,7,
{32}1b,,8,7,6,5,,,1,,8,,,2,3,4,
{16}5/7,,7,,
{32}1,2,3x,4x,7,6,5x,4x,
2,3,4x,5x,6,7,8,1,
2,3,4,5x,6,7,8,1,
{4}2b-7b[8:1]/6b-3[8:1],2b/6b/Cf,,,,,,
E
