&title=ディスクローズ・フリック
&artist=柊マグネタイト
&first=0
&des=SnapDot
&lv_5=13+
&inote_5=(195)
{1},,,
{8}4h[4:1],,,6h[4:1]/3h[4:1],,,4h[4:1],5h[8:1],,
{8},3/5,,4/6,,5/7,5/7,
{8}8h[4:1],,,2h[4:1]/7h[4:1],,,8h[4:1],1h[8:1],,
{8},7/1,,8/2,,1/3,1/3,
{8}8-6[8:1],,1,1,2-4[8:1],,1,1,
{4}8h[2:1],1,E3,E5,
{8}5-7[8:1],,4,4,3-1[8:1],,4,4,
{4}5h[2:1],4,E3,E1,
{8}2-8[8:1],,3,3,5-7[8:1],,4,4,
{4}3h[2:1],1,E5,E7,
{8}7-1[8:1],,6,6,4-2[8:1],,5,5,
{4}7-4[8:1],8v5[8:1],1v4[8:1],2,
{4}3,1/5,6,4/8V26-4[2:1],
{4}3x,2x,1x,1v4[8:1],
{4}1/2,1v7[8:1],1/8,8p4[4:1],
{4}4p8[4:1],8<4[4:1],4>8[4:1],8,
{1}4V62<1-5-7>8-3-5[4:5],
{4},,,2x-5[8:1],
{4}2x/8x,7x-4[8:1],1x/7x,5xpp5[4:1],
{4}4xv1[8:1],,6-1-4[4:1]/3,,
{4}2>5[8:1],2/8,7v4[8:1],1/7,
{4}2-6[8:1],1-7[8:1],3-5[8:1],6<1[8:1],
{4}4x/6x,2>5[8:1],2x/8x,8z4[4:1],
{8}5,,3,,1,4,2,5,
{1}3V16>5-1>2-4-7[4:5],
{4},,,6h[2:1],7,
{4}4h[4:1],3,5pp5[4:1],
{4}4v1[8:1],,{24}6x,7x,8x,,,,1x,2x,3x,,,,
{8}4/5-7[8:1],,4,4,3-1[8:1],,6,6,
{4}7h[2:1],8,E3,E5,
{8}4-2[8:1],,5,5,6<8[8:1],,5,5,
{24}4x,3,2,,,,8x,7,6,,,,1x,2,3,4x,5,6,7x,8,1,2x,,,
{8}6-3[8:1],,1,1-5[8:1],,1/2,,3h[4:1],
{8}6,5,4,3-7-1[4:1],,B6,B5,,
{4}2-6[8:1]/5,1-5[8:1],8-4[8:1],7-3[8:1],
{8}2,,,1,2,3,4,5,
{1}6>5-2-8<7-4>3-1-6[4:5],
{4},,,3>8[8:1],
{4}3/5,6<1[8:1],4/6,8xqq8[4:1],
{8}1xv4[8:1],,,,3,4x,5-8[8:1],,
{8}5/3h[4:1],,,3h[4:1],,8V26>4-7[8:9],3h[4:1],,
{8},3h[4:1],,,3,,3,,
{8}3,,,7h[4:1],,3<6pp8>2[8:9],7h[4:1],,
{8},7h[4:1],,,7,,7,,
{8}7,,,1h[4:1],,8-5-3-7[8:7],1h[4:1],,
{8},1h[4:1],,,1,,1,,
{2}7h[8:7],2h[8:7],
{4}6bh[8:5],,1hb[4:1],5-2[8:1],
{4}1-6[8:1]/5,1/5>1[4:1],1>5[6:1]/5,3x-7[8:1],
{4}6x-4[8:1]/3x,2x-8[8:1]/6x,2x/7x-3-5[4:1],2x/7x,
{8}8b-4b[8:1],,,5,6,7-3[8:1],,,
{4}8V24[4:1],4V68[4:1],8>4[4:1],4<8[4:1],
{8}8,,,6,4,5<8[8:1]/3,,1,
{8},2,1,8h[4:1],,7p3[8:1],,7b,
{8},5,2/4,1,5/8,6qq1[4:1],,3,
{8},2,2bq5[4:1],,,,8-3[8:1],,
{4}4-7[8:1]/8,4/8V24[4:1],4V68[6:1]/8,2x-6[8:1],
{4}7x-2[8:1]/2x,3x-5[8:1]/7x,3x/6x-2-8[4:1],3x/6x,
{8}5b-1b[8:1],,,8,7,6-2[8:1],,,
{4}5V31[4:1],1V75[4:1],5>1[4:1],1<5[4:1],
{8}5,,,7,1,8<5[8:1]/2,,4,
{8},3,4,5h[4:1],,6q2[8:1],,6,
{8},8,3/1,4,8/5,7pp4[4:1],,2,
{8},1,1,,5b/E1/B1/E2,,2b/E7/B7/B6,,
{1}7v8-3[2:1]*v6-3[2:1]/B3/E3f/A3,
{1},
{8}4h[4:1],,5,5,6h[4:1],,5,5,
{8}3h[2:1],,2,,E1,,E7,,
{8}5h[4:1],,4,4,3h[4:1],,4,4,
{8}6h[2:1],,7,,E1,,E3,,
{8}2h[4:1],5,4,4,2,2,8,8,
{24}4,3,2,,,,,6,5,4,,,1,2,3,4,5,6,7,8,1,2,,,
{2}5pp7pp1[4:7],4h[2:1],
{2},B2/E3/B3,2pp4pp6[4:7],8h[2:1],
{2},E1/A8/D1,
{2}8q6pp4[4:7],5h[2:1],
{2},B3/E3/D3,
{2}3<4-8pp1[4:5],6h[2:1],
{8},,,,A4,A1,B4,B1,
{1}Ch[2:15]/1x-5-2-4[4:5],
{1},
{1}4-6-2-7[4:5],
{1},
{1}8V27q5[4:5],
{1},
{1}6>2v8[4:3],
{2},B1/E2/B2/B6/B5/E6,
{4}3,2/5,7,4/8,
{4}2-4[8:1],8-6[8:1],1-5[8:1],1,
{4}1xp5[8:1]/5xp1[8:1],1x/5x,4xv2[8:1]/8xv6[8:1],4x/8x,
{4}6x-4[8:1],2x-6[8:1],8x-2[8:1],1x,
{1}3-6V82-5<6V83<4[4:5],
{4},,,7-4[8:1],
{4}7/1,2-4[8:1],8/2,5pp5[4:1],
{4}4v1[8:1],,6<7-1[8:1]/2>3-5[8:1],2/6,
{8}D2/B1/E2/D6/B6/B5,,,4h[4:1],,B8,4h[4:1],,
{8}E1,4h[4:1],,E8,4h/B7,,4h/B6,,
{8}4h/B5,,,5h[4:1],,E2,5h[4:1],,
{8}B2,5h[4:1],,A1,5h/E2,,5h/B2,,
{8}5h/E4,,,3h[4:1],,B7,3h[4:1],,
{8}B8,3h[4:1],,D7,3h/B6,,3h/A6,,
{2}4h[24:23],5h[24:23],
{24}3x,2x,1hx[2:1],,,,,,,,,,6x,7x,8hx[6:1],,,,1v6b[8:1],,,,,,
{4}5v2b[8:1]/1,5/1<5[4:1],5<1[6:1]/1,7x-3[8:1],
{4}2x-8[8:1]/7x,6-4[8:1]/2,6/3-7>1[4:1],6/3,
{8}4b-8b[8:1],,,1,2,3-7[8:1],,,
{8}8-5[8:1],1,2-6[8:1],3,7-4[8:1],8,3-8[8:1],,
{8}5,,,2/7,8,1>4[8:1]/7,,5,
{8},6h[4:1],5,4-6[8:1],,1bx-7[8:1]/A4f,,,
{8},1,6/8,5,1/4,2qq5[4:1],,7,
{8},6,6bq7[4:1],,,,4-7[8:1],,
{4}8-3[8:1]/4,8/4V68[4:1],8V24[6:1]/4,6x-2[8:1],
{4}3x-6[8:1]/6x,7x-1[8:1]/3x,7x/2x-6-4[4:1],7x/2x,
{8}1b-5b[8:1],,,4,3,2-6[8:1],,,
{8}1-7[8:1],1,5-2[8:1],5,4-7[8:1],4,3-6[8:1],,
{8}1b,,,3,5,4>1[8:1]/6,,8,
{8},7,8,1h[4:1],,2bq6[8:1],,2,
{8},4,7/5,8,4/1,3pp8[4:1],,6,
{8},5,5,,1b/E5/B5/E6,,6b/E3/B3/B2,,
{1}1bw5[8:1]/E7/B7/B6,
{1},
{8}6h[4:1],,5,5,4h[4:1],,5,5,
{8}2/4,3,2v5[8:1]/4,,1v6[8:1],,,,
{8}5-2[8:1],,6,6,7h[4:1],,5,5,
{8}4,4,7,7,3,3,6,6,
{16}4,3,2,1,8,7,6,5,4,3,2,1,8,7,6,5-2-7-4[4:3],
{1},
{8}6h[4:1],,,6,,6h[8:1]/4h[8:1],,4/6,
{8},,7h[8:1],,4h[8:1]/6h[8:1],,5,5,
{8}3h[4:1],,,2h[4:1]/4h[4:1],,,3,3,
{8},,4h[8:1]/6h[8:1],,5h[8:1]/7h[8:1],,6,6,
{8}5v4-1[4:15]*v6-1[4:15],
