&title=Omega horizon
&artist=Donrwin & Ash
&first=0
&des=False Horizon.
&lv_5=13+
&inote_5=(102.5)
{1},
{1}2<3[8:29]/7,,
{4}8,8,7,7,6,6,5-8[16:1],5,
{8}8-6[8:1],2,8-4[8:1],3,8-5[8:1],2,8-3[8:1],3,
{8}8-4[8:1],2,8-6[8:1],3,8-4[8:1],3,8,2,
{8}1-3[8:1],7,1-5[8:1],6,1-4[8:1],7,1-6[8:1],6,
{8}1-5[8:1],7,1-3[8:1],6,1-5[8:1],6,1,7,
{16}1b/8b<6[8:1],,2,,1/8p4[8:1],3,3,,1/8q5[8:1],,2,,1/8p3[8:1],3,3,,
{16}1/8q4[8:1],,2,,1/8<6[8:1],3,3,,1/8z4[8:1],,3,,1/8,,2,,
{16}8/1>3[8:1],,7,,8/1q5[8:1],6,6,,8/1p4[8:1],,7,,8/1q6[8:1],6,6,,
{16}8/1p5[8:1],,7,,8/1>3[8:1],6,6,,8/1s5[8:1],,6,,8/1,,7,,
{16}1b-5[8:1]/8b,,3,,1/8-4[8:1],,6,,2-6[8:1]/8,,3,,2/7-3[8:1],,8,8,
{16}2-5[8:1]/7,,1,,2/6-1[8:1],,7,,3-5[8:1]/6,,4,,3/6,,6,6,
{16}4-8[8:1]/5,,2,,4/5-1[8:1],,7,,3-7[8:1]/5,,2,,3/6-2[8:1],,5,5,
{16}3-8[8:1]/6,,4,,3/7-4[8:1],,6,,2-8[8:1]/7,,1,,2/7,,7,7,
{16}2b/8bq5[8:1],,7,,4q1[8:1]/8,,3,,4/8q5[8:1],,7,,4>1[8:1]/8,,3,3,
{16}4/8qq6[8:1],,7,,4qq2[8:1]/8,,3,,4/8qq6[8:1],,7,,4/8,,3,3,
{8}4/8V64[8:1],7,4V28[8:1]/8,3,4/8V64[8:1],7,4/8,3,
{32}2/6h[32:9],,2,,2,,2,,,3h[32:11],,,2,,2,,1b,8,7,6,5w1[16:1],,4/6,,4/6,,4/6,,,,,,
{2}3>3[1:2]/7h[4:1],5h[4:1],1h[4:1],7h[4:1],
{2}3<3[1:2],1h[4:1],5h[4:1],7h[4:1],
{16}3V17[2:1],,5h[16:3],,,,5,,7V53[2:1],,4,4,,2,2,,
{16}3V17[2:1],,1h[16:3],,,,5,,7V53[2:1],,4,4,,2,2,,
{16}3V57[2:1],,1h[16:3],,,,1,,7V13[2:1],,2,2,,4,4,,
{16}3V57[2:1],,5h[16:3],,,,1,,7V13[2:1],,2,2,,4,4,,
{2}6,{8}4bp5[8:1]/5bq4[8:1],4>2[16:1]/5<7[16:1],,,
{16}1,8,2-4[16:1],7,3,8,2-6[16:1],7,3,5,2-4[16:1],7,4,8,2-6[16:1],6,
{16}3,7-1[16:1],2,8,5,7,4-2[16:1],6,3,8-4[16:1],4,6,1,8,3-1[16:1],5,
{16}2,6,3-5[16:1],7,2,8,3-1[16:1],6,4,8,3-5[16:1],7,2,8,3-1[16:1],6,
{16}4,6-4[16:1],3,7,8-3[16:1],6,2,5-8[16:1],8,7,4v1[16:1]*>1[16:1],5,3,6,4,,
{16}8,2,7-5[16:1],3,6,1,7-3[16:1],2,6,4,7-5[16:1],2,5,1,7-3[16:1],3,
{16}6,2-8[16:1],7,1,4,2,5-7[16:1],3,6,1-5[16:1],5,3,8,1,6-8[16:1],4,
{16}7,3,6-4[16:1],2,7,1,6-8[16:1],3,5,1,6-4[16:1],2,7,1,6-8[16:1],3,
{16}5,3-5[16:1],6,2,1-6[16:1],3,7,4-1[16:1],1,2,5v8[16:1]*v2[16:1],4,6,3,5,,
{16}3<5[16:1],7,3>1[16:1],5,3,1,3,,
{64}2b/5h[8:1],3,4,,6,7,8,1,{16}2-5[16:1]*-6[16:1],,3/4,2/5,,,
{16}3-5[16:1],7-5[16:1],3-1[16:1],7-1[16:1],3,7,3,7,
{16}4h[8:1],8,{32}8,3/7,2/6,1/5,{16}4h[8:1]/8,8,{32}8,1/5,2/6,3/7,
{16}8-4[16:1],3,6-8[16:1],3,8,3,6,,
{64}2b,3,4,,1b,8,7,6,{16}5>2[16:1]*<8[16:1],,3/7,4/6,,,
{16}1-5[16:1],8-4[16:1],2-6[16:1],7-3[16:1],1,8,2,7,
{16}4,4/7,{32}4/7h[8:1],3,2,1,{16}8,7/8,{32}7/8h[8:1],6,5,4,
{16}3-5[16:1],1,3-7[16:1],2,3,1,3,,
{64}1b/6h[8:1],8,7,,5,4,3,2,{16}1V35[16:1]*q5[16:1],,7/8,1/6,,,
{16}3-1[16:1],7-5[16:1],3-5[16:1],7-1[16:1],3,7,3,7,
{16}3,,4/8p4[16:1]*q4[16:1],,1h[32:1]/7h[32:1],1h[32:1]/7h[32:1],,,
{16}3-5[16:1],7,2-8[16:1],6,3,7,2,6,
{64}1b,2,3,4,5,6,7,8,{8}1w5[16:1]/5h[8:1],{64}1,8,7,6,5,4,3,2,{8}1b,
{16}2,8-4[16:1],4,6,4-2[16:1],8,2,8-6[16:1],4,7q3[16:1]*v4[16:1],1,8,2,7,,,
{16}7bqq1[4:1]/2,,4,4,,3,3,,4V28[4:1],,6,6,,5,5,,
{16}4p5[16:3],,5,5<4[16:7],,7,,8h[16:7],{2},
{16}6p5[4:1]/3,,1,1,,2,2,,3qq8[4:1],,7,7,,6,6,,
{16}5,1-4[16:1],7,3,5-8[16:1],1,6,3-6[16:1],5,1,7-3[16:1],3,8,5,7b,,
{16}6pp4[4:1]/2,,1,1,,2,2,,1V35[4:1],,7,7,,8,8,,
{16}8,,7-4[16:1],2/7,,3-8[16:1],3/7,,5-8[16:1],3/5,,4,4h[4:1]/5,,,,
{16}7q8[4:1],,2,2,,3,3,,2pp5[4:1],,6,6,,7,7,,
{16}8,2-7[16:1],6,3,5-8[16:1],2,6,1-3[16:1],5,3,7-3[16:1]*-5[16:1],1,6,2,7b,,
{16}2bp8[4:1]/6,,5,5,,6,6,,5pp1[4:1],,3,3,,4,4,,
{16}5q4[16:3],,4,4>5[16:7],,2,,1h[16:7],{2},
{16}3qq4[4:1]/6,,8,8,,7,7,,6q1[4:1],,2,2,,3,3,,
{16}2,8-6[16:1],4,6,4-2[16:1],8,2,8-4[16:1],4,7,1-5[16:1],8,2,8,1b,,
{16}3q5[4:1]/7,,8,8,,7,7,,8qq4[4:1],,2,2,,1,1,,
{16}1,,2>5[16:1],7/2,,6<1[16:1],6/2,,4>1[16:1],6/4,,5,5h[4:1]/4,,,,
{16}2pp1[4:1],,7,7,,6,6,,7p4[4:1],,3,3,,2,2,,
{16}1,8-6[16:1],3,5,4-2[16:1],8,2,5-7[16:1],4,7,1q5[16:1]*v4[16:1],5,2,8,1b,,
{8}6<4[4:5]/3,3,4,4,2,2,3,3,5,5p8[8:1],5,5,,,
{24}1-5[16:1]*s5[16:1],6,2,7,1,8,{1}1b,
E
