&title=DESTRUCTION 3,2,1
&artist=Normal1zer vs. Broken Nerdz
&first=0
&des={Destrution} 1,2,3
&clock_count=4
&lv_5=14
&inote_5=(321)
{4}4,,5,,3,6,3,5,6,
{8}5,6,5,,4,,3,,4,3,4,,5,,
{8}5h[2:1],,,,4,,,,4,,3,,2,,1,,5,6,5,6,4,7,4,7h[4:1],,,1,,2,,3,,
{4}5,,4,,6,3,6,4,3,
{8}4,3,4,,5,,6,,5,6,5,,4h[8:48],,5h[8:46],
{1},,,,,
{8},,,,,,,4z8s4[1:1]/5s1z5[1:1],,
{2},,
{8},,,,8b,,
{4}12,12,12,12,87,87,87,
{8}87,1x/6x,2x/5x,,25,,25,,25,,2x/5x,3x/6x,4x/7x,,4x/7x,3x/6x,2x/5x,1x,
{4}56,56,56,56,
{8}3x/4x,2x/5x,1x/6x,,1x/6x,2x/5x,3x/4x,,
{8}1xb,2,8xb,3,7xb,4,6xb,5,6xb,4,7xb,3,8xb,,,,
{8}12,12,12,,38,,38,,3-1[4:1]/8-4[4:1],,,,,,,,78,78,78,,16,,16,,1b,6b,1bh[4:1],,,,,,
{8}3b,4,3,4,2b,5,2,5,
{16}1bx,2x,3x,,8bx,7x,6x,,1bxh[32:1],2xh[32:1],3xh[32:1],4xh[32:1],5xh[32:1],6xh[32:1],7xh[32:1],8xh[32:1],1h[4:7],,,,
{2},,,
{8},,8,,8,,8,,8,,81,2,83,4,85,6,8/D6,A5,8/D5,A4,8/D4,A3,8/D3,A2,8/D2,A1,8/E2,E3,8/E4,E5,8/E6,E7,E8,,1,,1,,1,,1,,18,7,61,5,14,3,1,,1,2,8,3,7,4,6,5,7,8,6,1,5,2,4,3,
{4}4h[4:1]/8-3[8:1],,4h[4:1],,4h[4:1]/8-5[8:1],,4h[4:1],,5h[4:1]/1-6[8:1],,5h[4:1],,5h[4:1]/1-4[8:1],,5h[4:1],,4h[4:1]/8>3[8:1],,4h[4:1],,4h[4:1]/8<5[8:1],,4h[4:1],,
{8}8,7,8,7,1,6,1,6,2,5,2,5h[8:5],,,,,1b,,,,
{8}4,4,5,5,3,3,6,6,3,3,
{16}6x,7x,8x,,
{8}1x,1,2,2,8,8,3,3,
{16}1x,8x,7x,2x,3x,4x,8x,7x,6x,3x,4x,5x,,,,,
{8},,7,7,8,8,6,6,1,1,5,5,2,2-4[8:1],,,8,8,7,7,6,6,5,5<1-4[2:1],
{4},,,,
{8}1b/2b,,,,
{16}5,6,5,6,,,,,3,4,3,4,,,,,8b,,,,,,,,1b,2,3h[4:1],,,8b,7,6h[4:1],,,2b,3,4h[4:1],,,,7<5-1>3[2:1],,,,
{8},,,,,,1,2,3,4,5,6,7,8,
{16}1bx,2x,3x,4x,5x,6x,7x,8x,
{32}1bx,2x,3x,4x,5x,6x,7x,8x,1bx,2x,3x,4x,5x,6x,7x,8x,1b>1-5[2:3],
{2},,,
{16},,,,,,,
{32},1b,,,,,,,,
{8},,,,,,,,,,,,,,,,,,,,2h[4:5]/6h[4:5],,
{2},,,,,,,,
{8}1h[128:1],8h[128:1],2h[128:1],7h[128:1],3h[128:1],6h[128:1],4h[128:1],,
{8}4,5,,5,6,,6,5,,5,4,,4,3,,3,4,,4,5-8>1-4[1:1],,,,,,,,,,,,,
{8}1,8,,8,1,,1,8,
{16}E2,B2,B3,E4,E8,B7,B6,E6,A1,A2,A3,A4,A8,A7,A6,A5,1h[2:1],,,,,,,,8-4[4:1],,,,,,Cf,,
{4},,,,
{16}1bx,2x,3x,,,,2bx,3x,4x,,,,3bx,4x,5x,,,,4bx,5x,6h[2:1],,,,,,,,,,,1bx,8x,7x,,,,8bx,7x,6x,,,,7bx,6x,5x,,,,6x,5x,4h[2:1],,,,,,,,,,,,1bx,2x,3x,,,,2bx,3x,4x,,,,3bx,4x,5x,,,,4bx,5x,6h[2:1],,,,,,,,,,,1bx,8x,7x,,,,8bx,7x,6x,,,,7bx,6x,5x,,,,6bx,5x,4h[2:1],,,,,,,,,,,,,,
{16}8h[8:1]/3b,4,5,,,8h[8:1]/3b,4,5,,,8h[8:1]/3b,4,5,,,8h[8:1]/3b,4,5h[2:1],,,,7,,,,6,,,,1h[8:1]/6b,5,4,,,1h[8:1]/6b,5,4,,,1h[8:1]/6b,5,4,,,1h[8:1]/6b,5,4h[2:1],,,,,,,,2,,,,3,,,,,,8h[8:1]/3b,4,5,,,8h[8:1]/3b,4,5,,,8h[8:1]/3b,4,5h[2:1],,,,,,,,A6,A7,A8,A1,A2,A3,4xh[1:2],,,,,,,,,,,,,,,,,,,,,,,,,,,,,,,,,,,,1b>1>1>1-3-5-7-1q5q1-5b[2:15],,
{1},,,,,,,
{8},,,,,,,E1,,,,B1,,,,E2,E8,B2,,B7/B3,,B6/B2,,,,E1,,B1,,E2,,A6,E6,B5,B4,E4,A2,,,D3,,,,B4,,,,E4,E6,B3,,B6/B2,,B7/B3,,E1,E2,E3,E4,E5,E6,E7,E8,Ch[1:1],,,,,,,,
{4}1b,,2,,3,,4,,5,,6,,7,,8,,1,2,3,4,
{8}5,6,7,8,1,,2h[2:3],,,,,,,,,,,,,,,,,,
{8}4b/5b,,3,,6h[4:1],,,2,6,7,,,1-5[8:1],,1,,8b,,2,,1h[4:1],,3,4,3,5,2,6,1,,7,,1b/8b,,2,,7h[4:1],,,3,7,6,,,4-8[8:1],,4,,7,1,8,2,1,3,2,,
{16}4x,5x,6x,7x,8x,1hx[4:1],
{8},,,,,
{4}3b/8-4[160#8:1],3,3,3,3/5-1[160#8:1],3,3,3,6b,6,6,6<5-1[320#2:1],,,,,
{8}1,8,1,8,1,8,1,8,
{16}1,2,3,4,5,6,7,8,1,2,3,4,5,6,7,8,1h[1:1],,
{8},,,,,,,,,,,1b,,,,
{8}1b-4[8:1],,5-8b[8:1],,3-6[8:1],,7-2b[8:1],,5x,,4x/8x,,37,,62,,8b-5[8:1],,4-1b[8:1],,6-3[8:1],,2-7b[8:1],,4x,4x,5x,5x,6x,6x,,,5b-8[8:1],,1-4b[8:1],,7-2[8:1],,3-6b[8:1],,1x,,4x/8x,,3x/7x,,2x/6x,,12,,38,,87,,16,,
{16}6xw2[160#8:1],7x,8x,1x,2x,3x,4x,5x,6x,,
{8},,,2b-5[8:1],,6-1b[8:1],,3-8[8:1],,7-4b[8:1],,1x,,2x/6x,,3x/7x,,4x/8x,,7b-4[8:1],,3-8b[8:1],,6-1[8:1],,2-5b[8:1],,8x,8x,7x,7x,6x,6x,5x,5x,4b-8[8:1],,6-1b[8:1],,3-7[8:1],,5-1b[8:1],,D2,A2,D3,A3,D4,A4,D5,A5,5x<4[1:1],
{2},,,
{8},,,8b,4,4,7b,3,3,6b,2,2,1b,5,5,2b,6,6,,4b,8,8,5b,1,1,3b,7xb,7,5xb,5,3xb,3,1xb1,1,5b,1,1,6b,2,2,7b,3,3,4b,8,8<6-3[4:1],,,,,,1,1,2,2,3,3,4,4,5,5,6,6,7,7,8,,2,1-3-5-1[160#2:1],2,1,2,1,,,,,,,,,,,7,8-6-4-8[160#2:1],7,8,7,8,,,,,,,,,,,5,6,5,6,5,6,4,7,4,7,3,8,2,1pp5[2:3],,
{2},,,,
{16},,1bx,2h[32:1],3,4,8bx,7h[32:1],6,5,1bx,2h[32:1],3,4,8bx,7h[32:1],6,5,1bxh[32:1],2xh[32:1],3xh[32:1],4xh[32:1],5xh[32:1],6xh[32:1],7xh[32:1],8xh[32:1],1xh[32:1],2xh[32:1],3xh[32:1],4xh[32:1],5xh[32:1],6xh[32:1],7xh[32:1],8xh[32:1],1h[1:1],,
{8},,,,,,,8b,,,,,,,,
{8}4,5,,5,4,,4,3,,3,4,,4,5,,5,6,,6,5z1[1:1],,,,,,,,,,,,,
{8}1,8,,8,1,,1,8,
{16}E2,B2,B3,E4,E8,B7,B6,E6,A1,A2,A3,A4,A8,A7,A6,A5,1h[2:1],,,,,,,,8-4[240#8:1],,,,,,,Cf,,
{8},,,,,,
{16},,,4bx,3x,2x,,,,3bx,2x,1x,,,,2bx,1x,8x,,,,1bx,8x,7h[2:1],,,,,,,,,,,4bx,5x,6x,,,,5bx,6x,7x,,,,6bx,7x,8x,,,,7x,8x,1h[2:1],,,,,,,,,,,,4bx,3x,2x,,,,3bx,2x,1x,,,,2bx,1x,8x,,,,1bx,8x,7h[2:1],,,,,,,,,,,4bx,5x,6x,,,,5bx,6x,7x,,,,6bx,7x,8x,,,,7x,8x,1h[2:1],,,,,,,,,,,,,,
{16}5h[8:1]/2b,1,8,,,,5h[8:1]/2b,1,8,,,,5h[8:1]/2b,1,8,,,,5h[8:1]/2b,1,8h[2:1],,,,6,,,,7,,,4h[8:1]/7b,8,1,,,,4h[8:1]/7b,8,1,,,,4h[8:1]/7b,8,1h,,,,4h[8:1]/7b,8,1h[2:1],,,,3,,,,2,,,,,5h[8:1]/2b,1,8,,,,5h[8:1]/2b,1,8,,,,5h[8:1]/2b,1,8h[2:1],,,,,,,,7x,6x,5x,4x,3x,2x,1xh[1:1],,,,,,,,,,,,,,,,,,,3b,,,,5b,,,,,,,,,,,,,
{8}4b,6,2,5b,3,7,4b,8,6b,2,5,1b,7,3,6b,4,7,
{16}1,2,3,4,5,6,7,8,1,2,3,4,5,6,7,
{32}8x,7x,6x,5x,4x,3x,2x,1x,8x,7x,6x,5x,4x,3x,2x,1x,8x,7x,6x,5x,4x,3x,2x,1x,8x,7x,6x,5x,4x,3x,2x,1b-5[21#64:1],,,,,,,
{8},,,,,,,,,,,,,,,1x,1x,1x,1x,1x,1x,1x,1x,1,1,1,1,1,1,1b,,
