&title=The Heart
&artist=Slay the Spire
&first=-1.49
&des=CupLid
&des_5=
&lv_5=13
&inote_5=(157.5){4},,,,4h[16:1]/6-8[8:1],
2h[16:1],,4h[16:1]/3-1[8:1],
{2}8h[16:1],{4}6h[16:1]/5-1[8:1],8h[16:1],
,8-3[8:1]/1-4[8:1],{2}8/1,
{4}4h[16:1]/3-1[8:1],4h[16:1],,2h[16:1]/6-8[8:1],
{2}2h[16:1],{4}3h[16:1]/4-8[8:1],1h[16:1],
,1-6[8:1]/8-5[8:1],{2}1/8,
{4}7/E3h[4:1],{32}6,7,{16}8,,,,,,,{4}2/E7h[4:1],
{32}3,2,{16}1,,,,,,,{4}4/7,{32}6/5h[4:1],7,{16}8,,,,,,,{4}1/8-4[8:1],
{32}1/8,2,{16}3,,,,,,,{4}2/E7h[4:1],
{32}3,2,{16}1,,,,,,,{4}7/E3h[4:1],
{32}6,7,{16}8,,,,,,,{4}2/8h[2:3],E5/D5,
E6/D6,E4/D4,E7/D7,E3/D3,
1b,6/2-5[8:1],{8}2/8,7,{4}6/4,
3/7-4[8:1],{8}7/1,2,{4}5/3,6/2-5[8:1],
{8}2/8,8,{4}1/7<3[4:1],3>7[4:1],2,
4,3-8[8:1],{8}3/5,6,{4}7/1,
2/6-1[8:1],{8}6/4,3,{4}8/2,7/3-8[8:1],
{8}3/5,6,{4}7/1-5[8:1],{8}1/6,8-4[8:1],,8/3,
{4}2q6[8:1],2/8<5[8:1],{8}8/1,2,{4}3q7[8:1],
3/5-1[8:1],{8}5/1,3,{4}8/7p3[8:1],7/1>4[8:1],
{8}1/8,7,{4}6p2[8:1],6/4-8[8:1],{8}4/8,6,
{4}1/2>5[8:1],{8}2/1<6[8:1],8,1/3-7[8:1],2,{4}3/6<1[8:1],
{8}6/5>2[8:1],4,5/6-2[8:1],7,{4}6/1h[4:1],8,
{32}8/2,7/3,{16}6/4,,,{4}5/6h[4:1],4,{32}6/4,7/3,{16}8/2,,,{4}3/7-3[8:1],
{8}3-7[8:1],2,1,1,{4}6/2-6[8:1],
{8}6-2[8:1],7,8,8,{4}1>5[8:1],{8}5-1[8:1],7,
1,7,{4}4<8[8:1],{8}8-4[8:1],2,4,2,
{4}6/2-6[8:1],{8}6-2[8:1],7,8,8,{4}3/7-3[8:1],
{8}3-7[8:1],2,1,1,{4}8<4[8:1],{8}4-8[8:1],2,
8,2,{4}5>1[8:1],{8}1-5[8:1],7,5,7,
{4}3/7-4[8:1],{8}4-8[8:1],3,2<7[8:1],2,{4}6/2-5[8:1],
{8}2/5-1[8:1],6,7>2[8:1],7,{4}7-3[8:1],{8}7/3-6[8:1],1,
2<7[8:1],2,{4}2-6[8:1],{8}2/6-3[8:1],7,8,7,
{4}2/6-1[8:1],{8}1-5[8:1],2,3<6[8:1],3,{4}7/3-8[8:1],
{8}3/8-4[8:1],7,6>3[8:1],6,{4}6-1[8:1],{8}6/1-5[8:1],2,
3,2,{24}1/7,2,3,4,5,6,7,8,1,2/7,6,5,4,3,2,1,8,7,
{4}2/6h[2:1],Ch[8:1],Ch[8:1],2/6h[2:1],
Ch[8:1],Ch[8:1],2/6h[2:1],Ch[8:1],
Ch[8:1],7,Ch[8:1]/8w4[8:1],B2/Cf/B6,
{8}7/3,8,1,2/4,1,8,7/5,8,
1,{24}2/6,3,4,5,6,7,8,1,2,{2}3h[2:1]/7pp4[2:1],
{4},2,1/5,1/5-8[8:1],
5/3,{8}2,1,3,4,{4}1>7[4:1],
8,8,{8}5h[8:1],6h[8:1],4h[8:1],8h[8:9],
,,,,,,,,2,
1,8,7/5,8,1,2/4,1,
8,{24}7/3,6,5,4,3,2,1,8,7,{2}6h[2:1]/2qq5[2:1],
{4},7,8/4,8/4-1[8:1],
4/6,{8}7,8,6,5,{4}8<2[4:1],
1,1,{8}1h[8:1],5h[8:1],3h[8:1],7h[8:3],
,,5h[8:1],3h[8:1],1h[8:1],8h[8:3],,,4,
{16}3,4,{8}2,3/5,{16}6,5,{8}7,6/4,{16}3,4,
{8}2,{24}3/6,7,8,1-5[8:1],2,3,4,5,6,{2}7/1pp1[8:3]*qq1[8:3],
{4},5,5,7/3,
{8}5h[4:1]/1>6[2:1],,,5,6,7,{4}8h[4:1],
5,2/5<2[2:1],{8}2,3,4,5h[8:3],
,,{4}1h[8:3],{8},3h[8:3],,,5,
{16}6,5,{8}7,6/4,{16}3,4,{8}2,3/5,{16}6,5,
{8}7,{24}6/3,2,1,8-4[8:1],7,6,5,4,3,{2}2/8qq8[8:3]*pp8[8:3],
{4},4,4,2/6,
{8}4h[4:1]/8<3[2:1],,,4,3,2,{4}1h[4:1],
4,7/4>7[2:1],{8}7,6,5,4h[4:3],
,,{4}Cfh[4:3],{8},,,,7pp4[8:3],
,,3,3,3,{4}Cf/2qq5[8:3],
{8},6,6,6,{4}Cf/7qq1[8:3],{8}2,2,
3,3,{4}4/Ch[8:1],{8},,,,Cf/3pp8[8:3],
,,7,7,7,{4}Cf/6qq1[8:3],
{8},2,2,2,3h[8:1],8h[8:1],5h[8:1],6h[8:1],
8h[8:1],5h[8:1],{4}2h[8:1],3h[8:1]/7h[8:1],1h[8:1]/5h[8:1],
2/8v3q7b[8:3],2,2,1v3<6v8[2:1],
7,7,5s1b[4:1],2,
2,7p6[8:3]/2q3[8:3],,,6-3<6[2:1],
2,2,4z8>1s5[2:1],
7,7,Cfh[2:3],{8}1,1,
,5,{4}5,{8}8,8,,4,
(155){4}4b-6<8>2>4[2:1],E8,E3,8-6[8:1]*-2[8:1],
(157.5)8v5[8:1]*v3[8:1],8,B1/B2/Ch[2:1],B4/B5,
B8/B7,7-3[8:1],1-5[8:1],8b,
8s4v5-1[2:1],E8/B7,E2/B2,2-4v5-7b[8:3]*q7b[8:3],
,,{2}1s5[8:3]*qq4[8:3],
{4},7-3[8:1],1-5[8:1],8b,
7>8>1>2>3<4<5<6<7[8:3],3v1[8:1],,2p6>5[4:1]*<6>5[4:1],
{2}2,8>8[8:3]*-6-4-2-8[8:3],
{4},C,C,B2/C/B6/A6/A2/B8/A8/B4/A4,
5<7b[8:1]/4>2b[8:1],5s1b[8:1]/4z8b[8:1],5/4,2<7-3<6b[8:3],
,,{2}8q4V28[8:3]*p4<8[8:3],
{4},2h[4:1],4h[4:1],6,
8/Ch[4:1],8,8,7/Ch[4:1],
7,7,6/Ch[4:1],6,
6,5/Ch[4:1],5,5,
{1}4b-6<7v1>2-4[4:9]*q8q4[4:9],
{4},,,,,,,,Cf/8<5[8:1],
{8}2/8,2>5[8:1],,8/2,{4}8-5[8:1],
{8}2/8,2-5[8:1],,1/2,{2}1w5[8:3],
{4},7/3,{2}7h[4:1]/3h[4:1],
{8}6/4,7,8/4,5,4,1/3,{4}2h[2:1],
3,4,{8}4/2,5/3,6/4,7h[8:7]/5h[8:7],
,,,,,,,,{4}Cf/1>4[8:1],
{8}7/1,7<4[8:1],,1/7,{4}1-4[8:1],
{8}7/1,7-4[8:1],,8/7,{2}8w4[8:3],
{4},2/6,{2}2h[4:1]/6h[4:1],
{8}3/5,2,1/5,4,5,8/6,{4}7h[2:1],
6,5,{8}5/7,4/6,3/5,4/2h[8:7],
{32},,,,,,,,5,6,{16}7,{32},,,,,,,,6,7,{16}8,,,,,{8}8,
{16}7,8,{8}6,7/1,{16}2,1,{8}3,2/8,{16}7,8,
{8}6,{24}7/2,3,4,5-1[8:1],6,7,8,1,2,{2}3/5pp5[8:3]*qq5[8:3],
{4},8/2,4/6,3/7,
{8}5/1h[4:1],,,1/5,2/6,3/7,{4}8/4h[4:1],
1,5/1>6[2:1],{8}6,7,8,1h[8:3],
,,{4}5h[8:3],{8},7h[8:3],,,1,
{16}2,1,{8}3,2/8,{16}7,8,{8}6,7/1,{16}2,1,
{8}3,{24}2/7,6,5,4-8[8:1],3,2,1,8,7,{2}6/4qq4[8:3]*pp4[8:3],
{4},7/1,5/3,6/2,
{8}1h[16:1]/7h[16:1],1h[16:1]/7h[16:1],5h[16:1]/3h[16:1],5h[16:1]/3h[16:1],6h[16:1]/4h[16:1],6h[16:1]/4h[16:1],5h[16:1]/2h[16:1],5h[16:1]/2h[16:1],
7h[16:1]/1h[16:1],7h[16:1]/1h[16:1],6h[16:1]/2h[16:1],6h[16:1]/2h[16:1],7h[16:1]/3h[16:1],7h[16:1]/3h[16:1],8h[16:1]/4h[16:1],8h[16:1]/4h[16:1],
1h[16:1]/5h[16:1],1h[16:1]/5h[16:1],{4}2h[8:3]/6h[8:3],,,{1}6-2[4:7]/2-6[4:7],
E
