&title=EFX
&artist=Avans
&first=0.97
&des=Aza
&lv_5=13+
&inote_5=(128)
{4}5hbx[2:1]/7bx,,6h[8:3],4h[4:1],{8}5bx,2bx/4hbx[4:1],,,{16}3,4,2,4,{12}3<6b[8:1],5x,,{2}7hx[2:1],{8}6p4[4:1],5,4,3,2hx[4:1],,8,7xv6-4[4:1]/4,,3,2,2,{4}1>4[8:1],B6`B5,{16}7,5,6,5,{4}7-4[8:1],3qq8[8:3]/7,{8}6,7v6-4[4:1],,,{16}8,1,2,3,{4}8xz4[4:1],{8}3,3,2,1,2/6,7,4/8>3[8:1],,3,4-1[8:1],4-6[8:1],4qq5[4:1],,,
{4}7b,A8`E1,{8}2/6-1[8:1],4-2[8:1],,,5V37[4:1],5,1x,1x,2>5[8:1],8-2[8:1],2-6[8:1],8,3h[4:1],,{16}4,2,,2,{8}5h[4:1],1,2-8b[8:1],3/7,6h[4:1],,,5h[2:1]/7,,4,2-5b[8:1],8,2/6b,,A7`B7,A3`B3,{16}A6,E6,E5,,{4}2-6[8:1],2/7-4[8:1],{8}4x,3h[16:9],{16}2,1,8,7,6,5,4,,{4}2bx,5w1[8:1]*s1^8z4[2:1],A5f,,2h[8:1],7h[8:1]/5,3h[8:1]/4qq6[4:1],,
{4}E3f,,,{8}6,6h[4:1],,5h,,4h,,3h,{16},B6,B5,,{8}3h[4:1],4,5,6,4h[4:1],7,6pp1[4:3],5,{1}2xpp5b[2:1],{4}4h[8:1]/8-6v5[2:1],4h[8:1],3h[8:1],3h[8:1],2h[8:1]/4v1-6[2:1],2h[8:1],3h[8:1],{8}3,3,4h[8:1]/5,5h[8:1],{16}4,6,,3,5,4,,6,{4}5/3h[2:1],,2p4[8:1],3w7b[8:1],,
{4}1>4[8:1]/5,7/1v7[8:1],1/3-8[8:1],{8}7,6-2[8:1],,5,4-7[8:1]*-8[8:1],,,{16},{32}1x,2,3,4,,,{8}6,5-3[8:1]/7,2x/6x,1/5-7[8:1],2,5/3-5[8:1],,8/3,7-3[8:1],,7/2,1,2,4q8[8:1]/6p2[8:1],5,4/6,,
{32}1bx,2,3,4h[32:3],{8},{32}1bx,2,3,4h[32:3],{8},{32}1bx,2,3,4h[32:3],{8},8,1/7<5[8:1],,4/7,3>1[8:1]*-7[8:1],,3b,,8-4[8:1],,2>5[8:1]/8,1,2-7[8:1]/6-3[8:1],7,2/6,,8,1/5h[2:1],,4,2,8<5[8:1],6,4>1[8:1],2,8,
{16}E7/B6f/E6,,3,4,2,,3,4,2V48[4:1],,1,8,2,,7,,6h[8:1],,1,5,2,,8-4[8:1],4,{8}7-5[8:1],,,1,6/2,{16}3,7,4z8[4:1],,5,2,4,,3x,,{8}2x,1-5[8:1],,4,6,8,1v3[8:1]/7p3[8:1],2,1/7,,{32}8x/1,7,6,5h[32:3],{8},{32}8x,7,6,5h[32:3],{8},{32}8x,7,6,5h[32:3],{8}3,3,2h[4:1]/4,,6,3pp6[8:3]/7,,4,2,8,8,7/1-5[8:1],2,1<6[8:1]/3,2,8h[4:1],,4,3h[4:1]/5,,6,5/7h[8:1],{16}8h[8:1],{32}6,5,{8}4,1/5,2-6[8:1]/6,3/7,8h[4:1],,
5>2[8:1],,{12}6,{24}6h[12:1],{12},{24}1hx[12:2],{8},8<5[8:1],{16},,8,4,{8}3,1>4[8:1],5-1[8:1],1,5,,3b,{16}8,7,{8}6,2,{16}B7,B3,B5,B1,,,5/6,4/7,,3/4,2/5,,6,5,7,4,{8}8>3[8:1],2,4<7[8:1],6,E1/B1/E2,,
{4}5h/7h[8:1],{8}4h[8:1]/6h,{12}5,3h[24:7],,{16}4,5,,,7,5,6-1[8:1],,2,3,4,,,3,3,4,2,5,{8}1x,4x/7x,3x/5x>2[8:1],4x/7x,{16}5,6,,7<4[8:1],8,,8,7,,,2,1,{8}3h/8<5[8:1],3h/8h,{24}4x,3x,2x,1hx[12:1],,,{8}4w8[8:1],4,,,2/3,2/3,2/3,1/2,2/3,3/4h[8:1],{24}3,5,3,5,3,5,2,3,4,1,2,3,8,1,2,7,8,1,6,7,8,5,6,7,{8}4b<3[4:1],6,C,,{24}4x,5x,6x,7hx[24:5],,3h[24:3],{8},{24}2b/6b,,,{4},3/4,{24}4/5>2[8:1],,,,,E2,,,,{8}C,
{4},{8}6>3[8:1],5/7,4/6,{24},,2x,{8},3x/7x-4[8:1],,2-6[8:1],1,8,7x,{16},1/8,,,{32}2/7,3/6,4h[16:3]/5,,,,,,2x,3x,4x,5x,{16}3,3,4,4,2b/5b,,,3b/7b,,,5bs1[2:1]/6b,,{1},
{32}1x-6[8:1],2x,3x,4,{8},{32}1/5x-1[8:1],4x,3x,2x,{8},4/5,{16}3,8x,{4}2-7[8:1],{16}2/6,,5,5,{8}1>4[8:1],,1p8b[4:1]/7,8,,,{24}1x,2x,3x,4x,5x,6x,1x,2x,3x,4x,5x,6x,{8}2-5[8:1],2,6,7h[8:1],{24}2,3,4,8x,,,7,6,5,{8}1x,2/8q1[4:1],,,,{4}2h[12:1],{12}4h[12:1],,3,5,4,4,6,5,5,7,6,6,5,4,3,{2}2v4[4:1]/4<1[4:1],
{1},{4},,,E3h[8:1],7b<4[8:1]/8b,3>8[8:1],3/4q5[4:1],,{8}2b,3h[4:1]/7b,4,6,{4}2q6[8:1]/8v6[8:1],2/8,1b>4[8:1],1v3[8:1]/5v7[8:1],1/5,2h[2:1]/6,{8}3,1,7,5-1[8:1],4/6-8[8:1],,,2,3/5,6,B3/7-4[8:1]`B4,6-2[8:1],,,3h[8:1],7,6b/4,3,B6/2-5[8:1]`B5,3-7b[8:1],,,6h[8:1],2,7/8,1,2h[8:1]/5,3,1-3v4-6b[4:1],,,,1b,2/7-4[8:1],3-8[8:1]/8,7,3,,5w1[8:1],,5b,,2h[4:1]/6,,4,3/5-2[8:1],4/6,7qq4[8:3]/5,6,,,8>3[8:1],,4b/8,5b,6b,4/7,{16}6,5,7,4,8,3,{8}1-5[8:1],2/8,7h[4:1],,2-5[8:1],5V38[4:1],2,6,7-3[8:1],6-4[8:1],,,1b,1b,2b/8b,,{16},6,5-1b[8:1],7-4[8:1],5,,,,,,{24}2,3,4,8,7,6,{8}1pp8[4:1]/5,,1/7<4[8:1],6,7,3b,,{16}7,6,5x,1x,3,4,5x,1x,7,6,{24}1x,2x,3x,{16}4,6,5,7,4,8,3,1-5[8:1],2-7b[8:1],,,
