&title=メグメグ☆フャイヤーエンドレスナイト
&artist=samfree/GUMI
&first=0
&des=谱面-200号
&lv_5=12
&inote_5=(162)
{1},
2-5[4:1]/7-4[4:1],
{8}2h[8:3],1,8,7h[8:3],,5,5,,
6h[8:3],5,4,3h[2:1],,2,1,8,
7h[8:3],6,5,4h[8:3],,2,2,1,
8/3-8[8:1],,5-1[8:1],,2-4[8:1],4-8[8:1],2,,
7,6,5,4,6,5,4,3,
5,4,3,2,4,3,2,1,
1,8,7,6,8,7,6,5,
{16}4/7,,6,5,6,,3,4,3,5,4,6,3,7,2,8,
{1}1h[4:7],
{4},,,7b,
{16}2,1,,1,2,,8/3,,7,8,,8,7,,1/6,,
{32}2-5[8:1],,,,,,7,,,,,,6-1[8:1],,,,,,3,,,,,,{16}2,,2,,
{16}3,5,,5,4h[8:1],,7,,6,4,,4,5h[8:1],,2,,
7,5,6,5,7,4,5,4,7,3,4,3,7h[8:1],,1h[8:1],,
8,2,,2,7,,1/6,,2,1,,1,2,,3/8,,
7-4[8:1],,,2,,,3-8[8:1],,,6,,,7,,7,,
6,4,,4,5h[8:1],,2,,3,5,,5,4h[8:1],,7,,
6h[4:1],,1,2,3,,4/5,,3,4,1,6,3,4,8b,,
{8},7/1,8,1,2,3h[4:1],,8>4[4:1],,4q8[4:1],,8q5[4:1],,5<1[4:1],,2,3,
4-1[8:1],8,4,7-4[8:1],2,7,1>4[8:1],5,6,7,8,5-2[8:1]/1-6[8:1],,5/1,,,
8/2,1,8,7,6h[4:1],,1<5[4:1],,5p1[4:1],,1p4[4:1],,4>8[4:1],,8,
7,6,5,8/4,1,2,3,4/5,3/6,2/7,{16}1/8,2/7,3/6,,
{8}4-8[8:1]/5-1[8:1],,5b/4b,,
7V53[8:1],,2>6[8:1],,7V53[8:1],,2>6[8:1],2,,8,8qq5[8:3],,4,3,2,1,
1V35[8:1],,6>2[8:1],,1V35[8:1],,6>2[8:1],6,,1,1pp4[8:3],,6,6,7,8,
1<6[8:1]/5>2[8:1],,1/5,,1/5,2,3,4,5/6,7,1/8,2,3b-6[8:1],,7b-2[8:1]/3,,7/4b-1[8:1],,8/4,7,6,5,4/3,2/1,
{16}8,1,7,2,6,3,5,4,{32}6,5,4,3,2,1,8,7,6-1[16:1]/2-5[16:1],,,,,,,,6b/2b,
,,,,,,,,,,,,,,,,,,,,,,,1b,,,,,,,,
{8}8/7<4[8:1],1,2/7,3h[4:1],{24}2b-5[8:1],1,8,7,,,{8}2/6,7,{16}8,,1-5[8:1],3,5,7,1,,,,
{8}4/6,3/7,2/8,1V35[8:1],,1/8,6V82[8:1],,6/4-8[8:1],,4/5,6,7,1-5[8:1]/8-6[8:1],3/4,1-3[8:1]/8-4[8:1],,1b/8b,,
{8}1/2>5[8:1],8,7/2,6h[4:1],{24}7b-4[8:1],8,1,2,,,{8}7/3,2,{16}1,,8-4[8:1],6,4,2,8,,,,
{8}6/5,4/7,3/8,2/1V75[8:1],,2/1,4V28[8:1],,6/4V68[8:1],,1/4,2,3,4,5/6,
{32}8w4[8:1]/7,1,2,3,4,5,6,7,8b,,,,,,,,
{8}7h[2:1],,1,,2h[2:1],8,8,,
7h[2:1],,8,,2>5[8:1],1,8,7,
6h[2:1],,4,,3>8[8:1],7,7,,
{16}7,8,7,,6,5,6,,7,8,6,1,5,2,4,3,
{8}5h[4:1],,3h[4:1],,7h[4:1],,1h[2:1],8,7,6,5-3[8:1]*-2[8:1],,5b-7[8:1]*-8[8:1],,5b,,
2/1,3,5/4,6,{16}7/8,1/6,2/5,,3qq5[8:6],,6pp4[8:5],,
{1}3b,
{16}7,8,,8,7,,1/6,,2,1,,1,2,,8/3,,
{32}7-4[8:1],,,,,,2,,,,,,3-8[8:1],,,,,,6,,,,,,{16}7,,7,,
{16}6,4,,4,5h[8:1],,2,,3,5,,5,4h[8:1],,7,,
2,4,3,4,2,5,4,5,2,6,5,6,2h[8:1],,8h[8:1],,
1,7,,7,2,,8/3,,7,8,,8,7,,6/1,,
2-5[8:1],,,7,,,6-1[8:1],,,3,,,2,,2,,
3,5,,5,4h[8:1],,7,,6,4,,4,5h[8:1],,2,,
6h[4:1],,1,2,3,,4/5,,{16}6,5,8,3,5,1,7b,,
{8},2/1,3/8,4/7,{32}5/6,4,3,2,1,8,7,6,{8}1bw5[8:1]/5b,3b/7b,,,
