&title=SetTitle
&artist=SetArtist
&first=1.374
&des=SetDesigner
&lv_5=13.7
&inote_5=(180)
{16}4/5,,4,,4,,4,,4,5,4,,4/B6f,,4,,
{16}4/5,,4,,4,,4,,4,5,4,,4/B7f,,4,,
{16}4h[16:1]/5,,4h[16:1],,4h[16:1],,4h[16:1]/5,,4h[16:1]/B5,B6/E6,4h[16:1]/E7f,,4h[16:1],,4h[16:1],,
{16}3,5,3,5,4,6,4,6,5w1[8:1],,5,,{32}5b,B5,Cf,B8/B1/B2,,,,,
{8}3x>8[8:1],3,6<1[8:1],6,4qq8[8:1],4,A7/D7/A6/E7/B7/B6,,
{8}6<1[8:1],6,3>8[8:1],3,5pp1[8:1],5,A2/D3/A3/E3/B2/B3,,
{8}3>8[8:1],3,6<1[8:1],6,4qq8[8:1],4,A7/D7/A6/E7/B7/B6,,
{8}1h[8:1]/7,7h[8:1],5,3h[8:1],5-1-4[16:3],7h[8:1],,,
{8}6<1[8:1],6,3>8[8:1],3,5pp1[8:1],5,A2/D3/A3/E3/B2/B3,,
{8}3>8[8:1],3,6<1[8:1],6,4qq8[8:1],4,A7/D7/A6/E7/B7/B6,,
{8}6<1[8:1],6,3>8[8:1],3,5pp1[8:1],5,A2/D3/A3/E3/B2/B3,,
{8}37,2,3,4,5/1,6/2,7/3,8/4,
{8}1b-3[8:1]/5b,,1<6[8:1],5h[8:1],1-3[8:1],5h[8:1],1-7<6[8:1],5h[8:1],1-3[8:1],5h[8:1],1<6[8:1],5h[8:1],1-3[8:1],5h[8:1],1-7<6[8:1],5h[8:1],1-3[8:1],5h[8:1],1<6[8:1],5h[8:1],1-3[8:1],5h[8:1],1-7<6[8:1],5h[8:1],
{8}1,3,4,5>1[8:1],5,6,7,8,
{8}8b-6[8:1]/4,,8>3[8:1],4h[8:1],8-6[8:1],4h[8:1],8-2>3[8:1],4h[8:1],8-6[8:1],4h[8:1],8>3[8:1],4h[8:1],8-6[8:1],4h[8:1],8-2>3[8:1],4h[8:1],8-6[8:1],4h[8:1],8>3[8:1],4h[8:1],8-6[8:1],4h[8:1],8-2>3[8:1],4h[8:1],
{8}8,,6h[8:1]/7h[8:1],,3h[8:1]/4h[8:1],,1h[8:1]/8h[8:1],,
{8}2-5[8:1]/7x,3,25,7,1-4[8:1],2,16,8,2-5[8:1]/7x,3,25,7,1-4[8:1],2,16,8,2-5[8:1]/7x,3,25,7,1-4[8:1],2,16,8,
{8}2x>8[8:4],E1,E8,E7,E6,E5,E4,E3,2bh[8:2]/8bh[8:2],,,,
{8}E2,E8,E4,E6,C,B3/E3,B7/E7,B4/E5,E1/B8,Ch[8:3]f,,,B7/E7,B3/E3,B8/E1,E5/B4,8,71,1,28,
{8}8h[8:2]/B2f,,6,5>1[8:1],,75,5q2[8:1],,
{8}25,3,4,3,25,4,3,4,25,3,4,3,4h[8:2],5b,,5b,
{8}73,6,4,5,73,4,6,5,73,6,4,5,4h[8:2],2b,,2b,
{8}17,2h[16:1],5h[16:1],4h[16:1],17,6h[16:1],3h[16:1],4h[16:1],17,2h[16:1],3h[16:1],4h[16:1],5h[8:2],8b,,8b,
{8}1/6-1[8:1],2,3,4,5-1[8:1],6,7>6[8:4]/5x,8,8h[8:3],,,,,5,2b/8b,,
{8}2b/5h[8:1],3,2b/6h[8:1],3,2b/7h[8:1],3,{16}8,1,8,1,
{8}7h[8:2],5,3,1,6h[8:2],4,2,{16}7,6,{8}5h[8:3],4>6[8:4],3,4,5,6,5,4,
{8}5<4[8:4],4,3b,A7,2b,A3,1b,,
{8}2-4[8:1],,25,6,7-3[8:1]/2-8[8:1],,27,,6<1[8:1]/1>4[8:1],,1-5[8:1],,4q8[8:1]/4p8[8:1],,4>4[8:6]/4<8[8:3],,4b,,,D8,D1f,D2,D3,D4,
{8}37,,2-7[8:1]/6-3[8:1],,2b/6b/Cf,,,,
{8}7b/4h[8:1],6,7b/3h[8:1],6,7b/2h[8:1],6,{16}1,8,1,8,
{8}2h[8:2],4,6,8,3h[8:2],5,7,{16}2,3,{8}4h[8:3],5<3[8:4],6,5,4,3,4,5,
{16}4,,5h[8:1],,3b,,4,5,2b,,3,4,1b,,3,4,
{8}2-4[8:1]/5-1[8:1],,25,,7x-5[8:1]/4x-8[8:1],,74,,1x>5[8:1]/5xq1[8:1],,15,,8x<4[8:1]/4xp8[8:1],,84,,1x>5[8:1]/5x<1[8:1],,5x-3-6[16:7]/1x-7-2[16:7],,,,,,
{8}37,,2-7[8:1]/6-3[8:1],,2b/6b/Cf,,,,
{16}82,,3,4,2h[8:1],,7,6,8h[8:1],,2,1,3h[8:2],,5h[8:1],,,,1b,,1b,,,,,,,,,,,,
{32}1b,2,3,4,5,6,7,8,1,2,3,4,5,6,7,8,1,2,3,4,5,6,7,8,1,2,3,4,5,6,7,8,
{8}1>8[8:4]/1<2[8:4],,,,,,,,
{8}3>8[8:1],3,6<1[8:1],6,4qq8[8:1],4,A7/D7/A6/E7/B7/B6,,
{8}1h[8:1]/7,7h[8:1],5,3h[8:1],5-1-4[16:3],7h[8:1],,,
{8}6<1[8:1],6,3>8[8:1],3,5pp1[8:1],5,A2/D3/A3/E3/B2/B3,,
{8}3>8[8:1],3,6<1[8:1],6,4qq8[8:1],4,A7/D7/A6/E7/B7/B6,,
{8}6<1[8:1],6,3>8[8:1],3,5pp1[8:1],5,A2/D3/A3/E3/B2/B3,,
{8}1h[8:2],3,4,25,{16}6,5,{8}6,74,1b/2b,,
{8}8h[8:2],6,5,74,{16}2,3,{8}45,2b/7b,,
{8}12,34,56,78,23,56,24,1b-6-4[8:14]b/8b-3-5[8:14]b,
E
