&title=Infinity Mirror
&artist=Dirty Androids
&first=-0.611
&des=M-M
&des_5=M-M
&lv_5=13
&inote_5=
(148)
{1},
{8}5h[16:3]/3h[16:3],,,2/3>6[1:1],,,,,,,,,,
5,{16},5,,,
{8}4h[16:3]/3h[16:3],,,2/3>6[16:15],{16},,,,,,,,,,,,,,,,,
4,,,{4}4,
{8}4/5,3,3,{16}4,3,,,{8}6,6,{16}5,6,
,,{8}2,2,{16}3,2,,,{8}7,7,{16}6,7,
,,{8}5,5,{16}6,5,,,{8}4,4,{16}3,4,
,,{8}6,6,{16}7,6,,,{8}4,{16},4h[16:3],,,{8}6b,
{16}3,5,2,6,{8}4h[4:1],{16},,6,3,5,2,{8}4h[4:1],
{16},,3,5,2,6,{8}4h[4:1],{16},,5,3,6,4,8,5h[16:3],
,,6,4,7,3,{8}5h[4:1],{16},,3,6,4,7,{8}5h[4:1],
{16},,6,4,7,3,{8}5h[4:1],{16},,4,6,3,5,1,4h[16:3],
,,2,6,3,7,{8}4h[4:1],{16},,6,3,5,2,{8}4h[4:1],
{16},,2,6,3,7,{8}4h[4:1],{16},,5,3,6,4,8,5h[16:3],
,,7,3,6,2,{8}5h[4:1],{16},,3,8,2,7,1,6h[8:3],
,,{8}3,{16},3,,,,,{8}6,{16},6h[16:3],,,
{8}2b,
{16}5,3,6,2,8,3,{8}7h[8:1],{16}2,8,3,5,2,6,{8}1h[8:1],
{16}5,2,6,1,8,3,{8}7h[8:1],{16}1,6,2,4,1,6h[16:3],
,,4,5,3,7,1,6,{8}2h[8:1],{16}7,1,6,4,7,3,{8}8h[8:1],
{16}4,7,3,8,1,6,{8}2h[8:1],{16}8,3,7,5,8,3h[16:3],
,,5,4,6,2,1,3,{8}8h[8:1],{16}2,1,3,4,2,5,
{8}1h[8:1],{16}4,2,5,1,8,3,{8}7h[8:1],{16}1,8,3,4,2,6h[16:3],
,,4,5,3,7,8,6,{8}1h[8:1],{16}7,8,6,5,7,4,
{8}8h[8:1],{16}5,7,4,8,1,6,{8}2h[8:1],{16}8,1,6,5,{8}7,
{16}4/2,,,6/4,,,{8}7b/6<3[16:19],,,{4}5,
{16}5,,,,,,,6,,,{8}6,{16},,,,7/4,
,,8/5,,,{8}1b/6<3[4:5],,,{4}4,
{16}4,,,,,,,5,,,{8}5,{16},,,,4/8,
,,5/1,,,{8}2b/6<3[4:3],,,{4}4<7[8:3],
{2}4,{16}4,,,5,,,{8}6/7,
{16}1/7,,,6/3,,,{8}4/3,{16},8/2,,6/3>5[16:7],{4}3/6<4[8:3],
{16},,,,,,,,3,6,3,6,2,7,2,7,
{4}1b-5[8:1],1/6-8[8:1],4-2[8:1]/6-4[8:1],4-8[8:1],
1-3[8:1]*-7[8:1],1-5[8:1],1/6-8[8:1],4-2[8:1]/6-4[8:1],
4-8[8:1],1-3[8:1]*-7[8:1],1-5[8:1],4-2[8:1],
4-6[8:1]/6-8[8:1],6-2[8:1],{2}6-8[8:1]/1-5[8:1],
{4}8-4[8:1],8/3-1[8:1],5-7[8:1]/3-5[8:1],5-1[8:1],
8-6[8:1]*-2[8:1],8-4[8:1],8/3-1[8:1],5-7[8:1]/3-5[8:1],
5-1[8:1],8-6[8:1]*-2[8:1],8-4[8:1],5-7[8:1],
5-3[8:1]/3-1[8:1],3-7[8:1],3-1[8:1]/8-4[8:1],,
{8}1/5-8[8:7],2,,2,{4}3,{8}3,4,
,4,{4}5V71[4:1],{8}2,3,{4}4-1[8:9],
{8}8,7,,7,{4}6,{8}6,5,
,5,{4}4V28[4:1],{8}7,6,{4}5-8[8:9],
{8}1,2,,2,{4}3,{8}3,4,
,4,{4}5V71[4:1],{8}1v6[8:1],2,3,{24}3,2,1,
{1}8-5[1:1],
{2}1-4[8:3],{16}8,8,8,8,1,1,{8}1,
1-7[8:1],6,1,6-2[8:1],7,6,1-3[8:1],4,
1,4-8[8:1],3,4,3-1[8:1],4,8,,
8-2[8:1],3,8,3-7[8:1],2,3,8-6[8:1],5,
8,5-1[8:1],6,5,6-8[8:1],5,1,,
3-1[8:1],4,3,8-4[8:1],1,8,3-5[8:1],6,
3,6-2[8:1],5,6,3-5[8:1],2,6,,
6-8[8:1],5,6,1-5[8:1],8,1,6-4[8:1],3,
6,1,2,3/6,8,1,{4}2b/6b,
{8}2-4[12:1],1,2,8-6[12:1],5,8,5-1[12:1],6,
5,4-2[12:1],1,4,1-5[12:1],4,6,,
7-5[12:1],8,7,1-3[12:1],4,1,4-8[12:1],3,
4,5-7[12:1],8,5,8-4[12:1],5,3,,
2-6[12:1],1,2,5-3[12:1],6,5,7-1[12:1],5,
7,2-6[12:1],5,2,5-3[12:1],6,2,,
7-3[12:1],8,7,4-6[12:1],3,4,2-8[12:1],4,
2,7-3[12:1],4,7,4,3,2,1,
8b/7b,{16}1,8,2,,6-2[12:1],5,7,,{8}8-4[12:1],1,7,
5-7[12:1],2,1,8-4[12:1],7,6,5,,
2/1,{16}8,1,7,,3-7[12:1],4,2,,{8}1-5[12:1],8,2,
4-2[12:1],7,8,1-5[12:1],2,3,4,,
7/3,{16}6,5,7,,1-5[12:1],8,2,,{8}3-1[12:1],4,5,
5-7[16:1],1,2,3-7[12:1],7,6,{4}5h[8:3],
{24}1,2,3,4-1[1:1],,,{8}6,5,6,7,6,7,
{1}8-5[8:5],
{8}2b,{16}4,3,5,1,8,2,{8}5h[8:1],{16}1,8,2,4,3,5,
{8}2h[8:1],{16}8,1,7,5,6,4,{8}7h[8:1],{16}5,6,4,7,1,8h[16:3],
,,5,7,4,8,1,6,2,5,4,6,3,7,2,8,
1b,,,2,,,{8}4/3>6[8:11],{16},5b,
E
