&title=chAngE
&artist=miwa
&first=0
&des=MYOU
&lv_5=13
&inote_5=(165)
{1},
{8}3b/5b,4,5,5,3,4,3,3,
{8}5,4,6,6,4,5,3,3,
{8}7-5[8:1],7,4,3,2-4[8:1],2,5,6,
{8}7,7,46,35,2-5[8:1],2,8,7,
{8}6b/4b,5,4,4,35,4,5,5,
{8}46,5,3,3,35,4,46,7,
{8}8qq8[4:1],8,1,2,3p2[4:1],3,7,6,
{8}5<8[8:1],5,3,4,57,46,35,4>5[8:3]/2,
{8}1h[4:3],,,,,,8b<6[8:1],,
{8}3/8-5[8:1],,2/8v3[8:1],2,3V57[8:1]/8,,1,,
{8}2V48[4:1]/8,3-8[8:1]/8,,,,17,16,2,
{8}3V58[4:1]/8,4-8[8:1]/8,,,,17,16,2,
{8}3bv8[8:1]/8b-5[8:1],,38,,{16}2,4,2,4,2,4,1b-5[8:9],,
{8},5,6,6,,6,7,7,
{8},7,8,8-3[8:1]*-5[8:1],,,,4,
{8}35,3,46,6,34,3,56,6,
{8}35,2,18,7,5-2[8:1]/6-2[8:1],56,,,
{8},3-1[8:1]/5,6,6,,4-1[8:1]/6,7,7,
{8},5-1[8:1]/7,8,8>3[8:1]*<5[8:1],,,,4-6[8:1],
{8}4h[4:1],,,{16}7,6,35,,2,3,46,,4>6[16:5]/6<4[16:5],,
{8},,,,,5q6[4:1]*q6[4:1],,,
{8},,78,7/8>5[4:1],,6,7,7,
{8}7h[8:1],5,6h[8:1],4,5h[8:1],3-1[8:1],4-8[8:1],,
{16},,2,3,{8}4,4,5,6,7-5[8:1],7,
{8}3-5[8:1],2,7-5[8:1],8,3,4,5-8[8:1]*v8[8:1],6,
{8},,21,2/1<4[4:1],,3,2,1,
{8}8,7,6,3qq5[8:3]/5,,,,,
{8}8<5[8:1],,38,,1>4[8:1],,16,,
{8}8p4[8:1],,85,,1q5[8:1],,1/4>5[8:3],,
{8}8h[2:1],,,,4-1[8:1],,46,,
{8}25,3,46,7<4[8:1],37,2,1,,
{8}12,1<6[8:1],3,4,5p1[8:1],,6,7,
{8}8q4[8:1]*>3[8:1],,,,5<8[8:1]/6,56,4,3,
{8}2>5[8:1],,1,,8<5[8:1],,2,3,
{8}4>1[8:1],,7h[4:1],,6,5,4,3,
{8}28,6,4,5,17,3,5,4,
{8}27,2-7[8:1]/7-2[8:1],27,27,,,5<1[16:3]/7<3[16:3],,
{8}5b/7b,,,2,7-4[8:1]/4,8,71,2,
{8}3-8[8:1]/5,4,37,6V85[4:1],2-5[8:1]/5,1,,,
{8}3/7<4[8:1],2,7,1,3q7[8:1],1,3,2,
{8}13,2,3v1[8:1]/4,5,6>3[8:1],7,2h[4:1],,
{8}1b-5[8:1],,7h[4:1]/1,,8-4[8:1],,8/2-5[8:1],,
{8}2pp1[4:1]/6V84[4:1],,,,,5,8-3[8:1]/6,1,
{8}8/2h[4:1],,4-8[8:1],4,1-5[8:1],1,7,6,
{8}4v3[8:1]/6v7[8:1],3-1[8:1]/7-1[8:1],,,,{24}8,7,6,1<4[16:3]/5<2[16:3],,,,,,
{8}1b/5b,,,3,6v8[8:1]/1,5,64,3,
{8}2>5[8:1]/7,1,25,6-2[8:1],8-4[8:1],6,8,1,
{8}5pp4[4:1],5,1,2,3p2[4:1],3,7,6,
{8}5<8[8:1],5,3,4,57,4-8[8:1]/6,35,42,
{8}1-4[8:1]*-6[8:1],,,,5V31[8:1]/7,,8,7h[8:1],
{8}8,6h[8:1],5,7V51[4:1],2-5[8:1]/8,,,,
{8}8>3[8:1]/4,7,6,5,4<7[8:1],3,2,1,
{8}28,37,4q8[8:1]/6,35,2-4[8:1]/4,1<3[4:1],2,1,
{8}2-5[8:1]*-7[8:1],,,,6/8V64[8:1],,1,2h[8:1],
{8}3,1h[8:1],8,2V84[4:1],3/5v7[8:1],,,,
{1}2bV48[2:1]/6bV85[2:1],
{8}1-4[8:1]/4-1[8:1],,1<3[4:1]/4<2[4:1],,,,,,
{8}1/8-5[8:1],,2/8v3[8:1],2,3V57[8:1]/8,,1,,
{8}2V48[4:1]/8,4V68[8:1]/8,,,,17,15,2,
{8}3V51[4:1]/8,5V71[8:1]/8,,,,17,15,2,
{8}4b/8bV64[8:1],,3b,1b,4b/6b,8b,3b/5b,1b/7b,
